<?xml version="1.0" standalone="no"?>
<!DOCTYPE svg PUBLIC "-//W3C//DTD SVG 1.1//EN" "http://www.w3.org/Graphics/SVG/1.1/DTD/svg11.dtd" >
<svg>
<metadata>
Created by FontForge 20110222 at Thu Dec 11 23:03:43 2014
 By deploy user
Copyright 1990, 2002 Adobe Systems Incorporated. All rights reserved. Copyright 1989, 1990, 2002 The Monotype Corporation Plc. All rights reserved.
</metadata>
<defs>
<font id="RockwellStd" horiz-adv-x="573" >
  <font-face 
    font-family="Rockwell Std"
    font-weight="400"
    font-stretch="normal"
    units-per-em="1000"
    panose-1="2 6 6 3 3 4 5 2 1 3"
    ascent="679"
    descent="-321"
    x-height="472"
    cap-height="679"
    bbox="-148 -223 1054 917"
    underline-thickness="50"
    underline-position="-50"
    unicode-range="U+0020-FB02"
  />
<missing-glyph horiz-adv-x="500" 
d="M0 0v700h500v-700h-500zM250 395l170 255h-340zM280 350l170 -255v510zM80 50h340l-170 255zM50 605v-510l170 255z" />
    <glyph glyph-name="f_i" unicode="fi" 
d="M390 390h-191v-308h75v-82h-244v82h75v308h-75v82h75v85q0 67 36 101.5t90 34.5q50 0 82 -28.5t40 -80.5l-82 -13q-4 46 -36 46q-36 0 -36 -51v-94h285v-390h75v-82h-244v82h75v308zM438 689q23 0 39.5 -16.5t16.5 -39.5t-16.5 -39.5t-39.5 -16.5t-39.5 16.5t-16.5 39.5
t16.5 39.5t39.5 16.5z" />
    <glyph glyph-name="f_l" unicode="fl" 
d="M199 472h80v-82h-80v-308h75v-82h-244v82h75v308h-75v82h75v85q0 67 36 101.5t90 34.5q39 0 59 -14h194v-597h75v-82h-244v82h75v515l-118 -11q-9 31 -37 31q-36 0 -36 -51v-94z" />
    <glyph glyph-name=".notdef" horiz-adv-x="500" 
d="M0 0v700h500v-700h-500zM250 395l170 255h-340zM280 350l170 -255v510zM80 50h340l-170 255zM50 605v-510l170 255z" />
    <glyph glyph-name=".null" horiz-adv-x="0" 
 />
    <glyph glyph-name="nonmarkingreturn" horiz-adv-x="333" 
 />
    <glyph glyph-name="space" unicode=" " horiz-adv-x="250" 
 />
    <glyph glyph-name="exclam" unicode="!" horiz-adv-x="292" 
d="M121 184l-24 288v207h98v-207l-24 -288h-50zM86 0v120h120v-120h-120z" />
    <glyph glyph-name="quotedbl" unicode="&#x22;" horiz-adv-x="406" 
d="M76 424l-14 138v117h80v-117l-14 -138h-52zM278 424l-14 138v117h80v-117l-14 -138h-52z" />
    <glyph glyph-name="numbersign" unicode="#" horiz-adv-x="668" 
d="M42 495h156l40 195h72l-40 -195h194l40 195h72l-40 -195h90v-68h-106l-34 -172h140v-68h-155l-41 -195h-71l40 195h-194l-41 -195h-71l40 195h-91v68h106l35 172h-141v68zM254 427l-35 -172h195l35 172h-195z" />
    <glyph glyph-name="dollar" unicode="$" horiz-adv-x="542" 
d="M229 -86v76q-88 6 -144.5 60t-54.5 155h89q5 -63 30.5 -95t79.5 -41v225q-186 37 -186 188q0 83 49 133.5t137 58.5v41h74v-41q83 -9 127.5 -63t36.5 -152h-85q0 61 -18 92.5t-61 41.5v-217q99 -19 147.5 -60t48.5 -124q0 -87 -51 -139.5t-145 -62.5v-76h-74zM229 392
v205q-41 -8 -64 -34t-23 -67t20 -65t67 -39zM303 278v-208q105 19 105 109q0 43 -23.5 65t-81.5 34z" />
    <glyph glyph-name="percent" unicode="%" horiz-adv-x="969" 
d="M617 161q0 81 38.5 129t103.5 48t103.5 -48t38.5 -129q0 -80 -38.5 -128t-103.5 -48t-103.5 48t-38.5 128zM696 161q0 -115 63 -115t63 115t-63 115t-63 -115zM68 512q0 81 38.5 129t103.5 48t103.5 -48t38.5 -129q0 -80 -38.5 -128t-103.5 -48t-103.5 48t-38.5 128z
M147 512q0 -115 63 -115t63 115t-63 115t-63 -115zM180 0l539 679h69l-535 -679h-73z" />
    <glyph glyph-name="ampersand" unicode="&#x26;" horiz-adv-x="677" 
d="M515 359h139v-83h-72q-25 -92 -67 -145l36 -46h103v-85h-155l-45 60q-90 -71 -180 -71q-104 0 -173.5 65.5t-69.5 163.5q0 135 154 204q-46 61 -46 118q0 63 47.5 106.5t117.5 43.5q68 0 115 -42t47 -103q0 -51 -33 -89t-109 -66l138 -187q38 67 53 156zM402 128
l-165 231q-102 -47 -102 -136q0 -61 44.5 -105t105.5 -44q65 0 117 54zM275 454q55 24 77 44.5t22 48.5q0 29 -19 45t-50 16q-32 0 -51.5 -17t-19.5 -48q0 -29 41 -89z" />
    <glyph glyph-name="quotesingle" unicode="'" horiz-adv-x="177" 
d="M63 424l-14 138v117h80v-117l-14 -138h-52z" />
    <glyph glyph-name="parenleft" unicode="(" horiz-adv-x="375" 
d="M180 237q0 -106 19 -178.5t54 -117.5t94 -83v-76q-124 59 -195 174.5t-71 280.5t71 280.5t195 174.5v-76q-59 -38 -94 -83t-54 -117.5t-19 -178.5z" />
    <glyph glyph-name="parenright" unicode=")" horiz-adv-x="375" 
d="M195 237q0 106 -19 178.5t-54 117.5t-94 83v76q124 -59 195 -174.5t71 -280.5t-71 -280.5t-195 -174.5v76q59 38 94 83t54 117.5t19 178.5z" />
    <glyph glyph-name="asterisk" unicode="*" horiz-adv-x="521" 
d="M113 466l-79 27l26 86l82 -26q32 -40 105 -66q-5 67 -31 120v83h88v-83q-26 -53 -31 -120q73 26 105 66l82 26l26 -86l-79 -27q-43 10 -120 -8q53 -63 91 -77l50 -69l-73 -52l-51 69q-2 24 -14.5 58.5t-29.5 54.5q-17 -20 -29.5 -54.5t-14.5 -58.5l-51 -69l-73 52l50 69
q38 14 91 77q-77 18 -120 8z" />
    <glyph glyph-name="plus" unicode="+" horiz-adv-x="667" 
d="M295 288h-229v77h229v229h77v-229h229v-77h-229v-229h-77v229z" />
    <glyph glyph-name="comma" unicode="," horiz-adv-x="292" 
d="M86 0v120h120v-120q0 -68 -27.5 -101t-92.5 -34v50q33 8 46.5 26.5t13.5 58.5h-60z" />
    <glyph glyph-name="hyphen" unicode="-" horiz-adv-x="354" 
d="M31 275h293v-82h-293v82z" />
    <glyph glyph-name="period" unicode="." horiz-adv-x="292" 
d="M86 0v120h120v-120h-120z" />
    <glyph glyph-name="slash" unicode="/" horiz-adv-x="438" 
d="M352 679h81l-347 -693h-81z" />
    <glyph glyph-name="zero" unicode="0" horiz-adv-x="542" 
d="M35 340q0 165 62 257.5t174 92.5q111 0 173 -92.5t62 -257.5q0 -166 -62 -258.5t-173 -92.5q-112 0 -174 92.5t-62 258.5zM270 611q-138 0 -138 -271q0 -272 138 -272q139 0 139 272q0 143 -35.5 207t-103.5 64z" />
    <glyph glyph-name="one" unicode="1" horiz-adv-x="542" 
d="M237 82v515h-93v82h187v-597h87v-82h-274v82h93z" />
    <glyph glyph-name="two" unicode="2" horiz-adv-x="542" 
d="M480 243l-6 -243h-434q0 153 112 265q36 36 99.5 81t93 78.5t29.5 79.5q0 49 -30 78t-80 29q-68 0 -92.5 -42t-24.5 -143h-90q-11 131 47.5 197.5t158.5 66.5q56 0 99 -17t66.5 -45t34.5 -59t11 -63q0 -79 -62 -141q-27 -27 -76.5 -63t-86 -62t-69.5 -67t-42 -86h255
l5 156h82z" />
    <glyph glyph-name="three" unicode="3" horiz-adv-x="542" 
d="M203 313v84h41q132 0 132 103q0 50 -29 80.5t-77 30.5q-113 0 -113 -137h-94q-4 99 49.5 157.5t147.5 58.5t151 -46t57 -132q0 -51 -26 -92.5t-70 -61.5q127 -40 127 -164q0 -93 -64 -149t-171 -56q-106 0 -170.5 60t-61.5 181h89q3 -77 42 -119.5t108 -42.5q59 0 95 33
t36 87q0 59 -44 92t-112 33h-43z" />
    <glyph glyph-name="four" unicode="4" horiz-adv-x="542" 
d="M300 182h-227q-12 45 -44 77l282 426h79v-421h109v-82h-109v-100h62v-82h-223v82h71v100zM300 264v268h-2l-175 -268h177z" />
    <glyph glyph-name="five" unicode="5" horiz-adv-x="542" 
d="M35 217h88q9 -71 46 -110t96 -39q61 0 98.5 41t37.5 108q0 65 -34.5 104t-91.5 39q-81 0 -137 -81q-30 30 -71 50l29 350h362v-181h-84v94h-208l-15 -200q27 23 65 38q34 12 73 12q93 0 151 -62t58 -162q0 -99 -60 -164t-173 -65q-104 0 -163.5 58.5t-66.5 169.5z" />
    <glyph glyph-name="six" unicode="6" horiz-adv-x="542" 
d="M482 479h-83q-8 61 -41 96.5t-81 35.5q-47 0 -79 -37t-45.5 -92t-13.5 -125q68 76 159 76q82 0 135.5 -60t53.5 -152q0 -102 -57 -167t-147 -65q-110 0 -172 92t-62 255q0 167 63 260.5t176 93.5q86 0 138.5 -57t55.5 -154zM143 255q11 -94 44 -139t91 -45q54 0 88 40
t34 103q0 59 -30.5 94t-82.5 35q-72 0 -144 -88z" />
    <glyph glyph-name="seven" unicode="7" horiz-adv-x="542" 
d="M109 0v82h90q7 127 55 261t122 249h-233v-92h-84v179h424v-66q-76 -106 -130.5 -257.5t-54.5 -273.5h79v-82h-268z" />
    <glyph glyph-name="eight" unicode="8" horiz-adv-x="542" 
d="M154 355q-100 59 -100 157q0 80 58.5 129t155.5 49q101 0 160 -48t59 -130q0 -98 -99 -157q120 -47 120 -168q0 -91 -63 -144.5t-169 -53.5q-122 0 -182.5 56t-60.5 142q0 121 121 168zM271 393q58 0 91 29.5t33 80.5t-33 78.5t-94 27.5q-57 0 -89.5 -28.5t-32.5 -78.5
t33.5 -79.5t91.5 -29.5zM271 68q61 0 99 34t38 89q0 57 -38 90t-103 33q-60 0 -97 -34t-37 -89t38 -89t100 -34z" />
    <glyph glyph-name="nine" unicode="9" horiz-adv-x="542" 
d="M51 201h83q8 -61 41 -97t81 -36q59 0 98.5 62.5t39.5 192.5q-68 -76 -159 -76q-82 0 -135.5 60t-53.5 151q0 102 57.5 167t147.5 65q110 0 171.5 -91t61.5 -255q0 -167 -63 -261t-176 -94q-86 0 -138.5 57t-55.5 155zM390 425q-11 94 -44 138.5t-91 44.5q-54 0 -88 -40
t-34 -103q0 -58 31 -93t82 -35q72 0 144 88z" />
    <glyph glyph-name="colon" unicode=":" horiz-adv-x="292" 
d="M86 352v120h120v-120h-120zM86 0v120h120v-120h-120z" />
    <glyph glyph-name="semicolon" unicode=";" horiz-adv-x="292" 
d="M86 0v120h120v-120q0 -68 -27.5 -101t-92.5 -34v50q33 8 46.5 26.5t13.5 58.5h-60zM86 352v120h120v-120h-120z" />
    <glyph glyph-name="less" unicode="&#x3c;" horiz-adv-x="667" 
d="M170 326l431 -176v-83l-535 224v70l535 225v-84z" />
    <glyph glyph-name="equal" unicode="=" horiz-adv-x="667" 
d="M66 481h535v-77h-535v77zM66 250h535v-77h-535v77z" />
    <glyph glyph-name="greater" unicode="&#x3e;" horiz-adv-x="667" 
d="M497 326l-431 176v83l535 -224v-70l-535 -224v83z" />
    <glyph glyph-name="question" unicode="?" horiz-adv-x="469" 
d="M235 183h-50l-12 212l7 3q66 -11 113 15t47 90q0 49 -29 78.5t-79 29.5q-57 0 -86 -35t-25 -104h-92q-5 61 12.5 106t50 68t67 33.5t70.5 10.5q96 0 151.5 -51.5t55.5 -140.5q0 -76 -48.5 -131t-140.5 -52zM149 0v120h120v-120h-120z" />
    <glyph glyph-name="at" unicode="@" horiz-adv-x="1010" 
d="M891 9h91q-70 -106 -174 -162.5t-260 -56.5q-123 0 -218.5 33.5t-155 93.5t-90 139t-30.5 173q0 63 15 128.5t51 133.5t89.5 120t138.5 85.5t190 33.5q188 0 302.5 -111.5t114.5 -270.5q0 -132 -88.5 -241t-206.5 -109q-93 0 -93 81q-69 -80 -149 -80q-76 0 -127 62.5
t-51 156.5q0 118 78.5 214.5t175.5 96.5q93 0 147 -90l17 76h88l-85 -393q-4 -17 7 -29.5t26 -12.5q18 0 48 17.5t62.5 49t55.5 86t23 117.5q0 132 -99.5 219.5t-249.5 87.5q-176 0 -292 -119.5t-116 -301.5q0 -173 107.5 -273.5t313.5 -100.5q237 0 344 147zM332 210
q0 -59 30 -99t75 -40q68 0 122 76t54 170q0 63 -31 101.5t-81 38.5q-41 0 -75 -27t-53.5 -67.5t-30 -80.5t-10.5 -72z" />
    <glyph glyph-name="A" unicode="A" horiz-adv-x="698" 
d="M474 239h-244l-53 -154h83v-85h-268v85h82l186 518h-80v76h347v-76h-80l183 -518h76v-85h-266v85h84zM448 318l-90 285h-9l-94 -285h193z" />
    <glyph glyph-name="B" unicode="B" horiz-adv-x="583" 
d="M106 85v509h-83v85h275q106 0 157 -50.5t51 -124.5q0 -103 -84 -144q56 -19 87 -63t31 -104q0 -26 -6 -50.5t-23 -51t-44 -46t-73 -32.5t-105 -13h-266v85h83zM208 396h76q118 0 118 101q0 50 -31.5 73.5t-98.5 23.5h-64v-198zM208 85h80q77 0 112 29t35 86
q0 111 -145 111h-82v-226z" />
    <glyph glyph-name="C" unicode="C" horiz-adv-x="760" 
d="M623 276l89 -49q-30 -111 -118 -174.5t-211 -63.5q-151 0 -245.5 97.5t-94.5 252.5q0 158 92.5 254.5t245.5 96.5q132 0 224 -73v62h88v-218h-88q-29 64 -88 101.5t-131 37.5q-101 0 -166 -72.5t-65 -185.5q0 -111 67.5 -186t167.5 -75q75 0 142 50.5t91 144.5z" />
    <glyph glyph-name="D" unicode="D" horiz-adv-x="729" 
d="M105 594h-92v85h319q95 0 164.5 -28.5t107.5 -77.5t56 -105.5t18 -121.5q0 -168 -88 -257t-267 -89h-310v85h92v509zM207 594v-509h120q247 0 247 258q0 115 -60.5 183t-184.5 68h-122z" />
    <glyph glyph-name="E" unicode="E" horiz-adv-x="625" 
d="M116 85v509h-88v85h563v-204h-84v119h-289v-202h252v-85h-252v-222h289v124h84v-209h-563v85h88z" />
    <glyph glyph-name="F" unicode="F" horiz-adv-x="552" 
d="M104 85v509h-86v85h527v-204h-84v119h-255v-201h220v-85h-220v-223h88v-85h-276v85h86z" />
    <glyph glyph-name="G" unicode="G" horiz-adv-x="802" 
d="M505 328h248q2 -89 -26 -157t-78.5 -106.5t-111 -57.5t-129.5 -19q-83 0 -148 24.5t-104 61.5t-64.5 86t-35 93.5t-9.5 88.5q0 62 19.5 121.5t58.5 111.5t107.5 83.5t157.5 31.5q136 0 238 -86v75h87v-223h-87q-29 65 -92 104.5t-137 39.5q-106 0 -173 -72t-67 -187
q0 -114 70.5 -188t179.5 -74q85 0 146 46t73 118h-123v85z" />
    <glyph glyph-name="H" unicode="H" horiz-adv-x="708" 
d="M104 85v509h-77v85h259v-85h-80v-194h297v194h-80v85h259v-85h-77v-509h77v-85h-259v85h80v230h-297v-230h80v-85h-259v85h77z" />
    <glyph glyph-name="I" unicode="I" horiz-adv-x="313" 
d="M105 85v509h-74v85h250v-85h-74v-509h74v-85h-250v85h74z" />
    <glyph glyph-name="J" unicode="J" horiz-adv-x="313" 
d="M-35 -202v95q39 -9 74 -9q72 0 72 86v624h-87v85h276v-85h-87v-644q0 -47 -17 -81t-44 -51t-54 -24t-54 -7q-41 0 -79 11z" />
    <glyph glyph-name="K" unicode="K" horiz-adv-x="625" 
d="M103 85v509h-85v85h275v-85h-88v-509h78v-85h-265v85h85zM210 359l217 235h-78v85h266v-85h-72l-208 -235l214 -274h73v-85h-276v85h73z" />
    <glyph glyph-name="L" unicode="L" horiz-adv-x="521" 
d="M104 85v509h-90v85h278v-85h-86v-509h212v231h94v-316h-498v85h90z" />
    <glyph glyph-name="M" unicode="M" horiz-adv-x="875" 
d="M107 85v509h-83v85h234l177 -465l179 465h237v-85h-82v-509h82v-85h-249v85h73v510h-2l-231 -602h-20l-229 601h-2v-509h73v-85h-240v85h83z" />
    <glyph glyph-name="N" unicode="N" horiz-adv-x="719" 
d="M101 85v509h-97v85h232l294 -528h2v443h-95v85h279v-85h-100v-601h-107l-322 580h-2v-488h98v-85h-279v85h97z" />
    <glyph glyph-name="O" unicode="O" horiz-adv-x="802" 
d="M50 339q0 154 99 252.5t252 98.5t252 -99t99 -252t-99 -251.5t-252 -98.5q-154 0 -252.5 98t-98.5 252zM162 339q0 -110 69 -185t170 -75t170 75t69 185t-69 185.5t-170 75.5t-170 -75.5t-69 -185.5z" />
    <glyph glyph-name="P" unicode="P" 
d="M105 85v509h-85v85h301q54 0 95.5 -14t66 -35t39.5 -50t20.5 -55.5t5.5 -55.5q0 -94 -57 -151q-33 -33 -81.5 -45.5t-126.5 -12.5h-76v-175h89v-85h-276v85h85zM207 342h85q87 0 119.5 34t32.5 94t-31.5 92t-88.5 32h-117v-252z" />
    <glyph glyph-name="Q" unicode="Q" horiz-adv-x="802" 
d="M447 -7v-1q124 -55 179 -36l-36 -84q-42 -9 -90 9t-98 41t-88 23q-42 0 -69 -24l-30 42q31 31 76 40v2q-111 32 -176 125.5t-65 211.5q0 152 98.5 250t250.5 98q155 0 254 -98t99 -251q0 -79 -28.5 -146t-74 -109t-98 -66.5t-104.5 -26.5zM162 341q0 -113 67.5 -188
t169.5 -75t171.5 76t69.5 187t-69.5 185t-173.5 74q-103 0 -169 -73t-66 -186z" />
    <glyph glyph-name="R" unicode="R" horiz-adv-x="604" 
d="M106 85v509h-93v85h314q110 0 163 -47.5t53 -129.5q0 -65 -36 -109t-104 -61l120 -247h83v-85h-147l-154 318h-97v-233h88v-85h-283v85h93zM208 403h115q116 0 116 99q0 44 -28.5 68t-78.5 24h-124v-191z" />
    <glyph glyph-name="S" unicode="S" horiz-adv-x="531" 
d="M34 0v246h84v-60q66 -112 158 -112q52 0 86 32.5t34 81.5q0 37 -22.5 60.5t-60 35t-78 21.5t-85 28.5t-73.5 47.5q-45 45 -45 123q0 89 57.5 137.5t140.5 48.5q82 0 152 -53v45h84v-205h-84v47q-54 79 -144 79q-52 0 -83 -24t-31 -63q0 -35 23 -58q21 -21 78.5 -35.5
t120 -34t96.5 -53.5q58 -58 58 -146q0 -86 -61.5 -143t-153.5 -57q-94 0 -167 67v-56h-84z" />
    <glyph glyph-name="T" unicode="T" 
d="M561 679v-258h-84v173h-140v-509h89v-85h-280v85h89v509h-140v-173h-84v258h550z" />
    <glyph glyph-name="U" unicode="U" horiz-adv-x="677" 
d="M477 594h-79v85h266v-85h-85v-391q0 -62 -21 -106.5t-57 -66.5t-74 -31.5t-83 -9.5q-136 0 -191 58.5t-55 156.5v390h-85v85h266v-85h-79v-393q0 -130 136 -130q75 0 108 33t33 105v385z" />
    <glyph glyph-name="V" unicode="V" horiz-adv-x="708" 
d="M309 -7l-227 601h-84v85h268v-85h-79l173 -456l169 456h-79v85h261v-85h-83l-224 -601h-95z" />
    <glyph glyph-name="W" unicode="W" horiz-adv-x="1000" 
d="M255 -7l-173 601h-82v85h260v-85h-81l127 -444h2l122 444h-81v85h312v-85h-80l124 -444h2l125 444h-81v85h249v-85h-80l-169 -601h-97l-152 537h-2l-151 -537h-94z" />
    <glyph glyph-name="X" unicode="X" horiz-adv-x="656" 
d="M102 85l172 257l-172 252h-88v85h273v-85h-76l117 -172l119 172h-79v85h261v-85h-85l-167 -243l182 -266h88v-85h-279v85h79l-124 184l-124 -184h82v-85h-271v85h92z" />
    <glyph glyph-name="Y" unicode="Y" horiz-adv-x="646" 
d="M275 85v224l-202 285h-83v85h279v-85h-85l149 -209l137 209h-85v85h271v-85h-90l-189 -285v-224h93v-85h-286v85h91z" />
    <glyph glyph-name="Z" unicode="Z" horiz-adv-x="563" 
d="M25 0v85l364 509h-264v-119h-84v204h478v-75l-371 -519h298v131h84v-216h-505z" />
    <glyph glyph-name="bracketleft" unicode="[" horiz-adv-x="375" 
d="M105 680h241v-71h-147v-742h147v-71h-241v884z" />
    <glyph glyph-name="backslash" unicode="\" horiz-adv-x="438" 
d="M352 -14l-347 693h81l347 -693h-81z" />
    <glyph glyph-name="bracketright" unicode="]" horiz-adv-x="375" 
d="M270 -204h-241v71h147v742h-147v71h241v-884z" />
    <glyph glyph-name="asciicircum" unicode="^" horiz-adv-x="469" 
d="M268 679l208 -350h-86l-154 259l-157 -259h-86l211 350h64z" />
    <glyph glyph-name="underscore" unicode="_" horiz-adv-x="500" 
d="M506 -125h-512v50h512v-50z" />
    <glyph glyph-name="grave" unicode="`" horiz-adv-x="333" 
d="M258 535h-63l-141 155h135z" />
    <glyph glyph-name="a" unicode="a" horiz-adv-x="531" 
d="M520 82v-82h-164v58q-81 -66 -152 -66q-67 0 -113.5 43.5t-46.5 106.5q0 65 49.5 109t122.5 44q68 0 129 -40v62q0 47 -29.5 69t-75.5 22q-69 0 -101 -56l-89 24q60 110 204 110q97 0 141 -41t44 -104v-259h81zM345 120v56q-61 47 -122 47q-39 0 -64.5 -23t-25.5 -58
q0 -34 23.5 -56t61.5 -22q66 0 127 56z" />
    <glyph glyph-name="b" unicode="b" horiz-adv-x="646" 
d="M25 0v82h84v515h-82v82h175v-273q73 80 172 80q100 0 165 -69t65 -176q0 -108 -65.5 -178.5t-165.5 -70.5q-52 0 -98 21.5t-71 57.5h-2v-71h-177zM205 235q0 -69 42 -115t106 -46q65 0 108 48t43 121q0 79 -46 118.5t-103 39.5q-66 0 -108 -46.5t-42 -119.5z" />
    <glyph glyph-name="c" unicode="c" horiz-adv-x="521" 
d="M484 472v-178h-84q-8 50 -41 79q-33 28 -84 28q-63 0 -101.5 -44.5t-38.5 -115.5q0 -76 40 -123t104 -47q99 0 142 93l77 -36q-63 -142 -222 -142q-78 0 -134.5 39.5t-81.5 95.5t-25 119q0 102 67.5 174t164.5 72q79 0 133 -46v32h84z" />
    <glyph glyph-name="d" unicode="d" horiz-adv-x="625" 
d="M623 82v-82h-180v70q-72 -78 -168 -78q-91 0 -161.5 62.5t-70.5 179.5q0 107 67 179.5t167 72.5q95 0 166 -76v187h-90v82h184v-597h86zM143 237q0 -73 41.5 -118t107.5 -45t108.5 47.5t42.5 119.5q0 71 -42 115.5t-110 44.5q-63 0 -105.5 -47t-42.5 -117z" />
    <glyph glyph-name="e" unicode="e" 
d="M536 213h-397q10 -69 53 -107t109 -38q99 0 153 77l82 -36q-38 -59 -99.5 -91t-137.5 -32q-115 0 -189 70.5t-74 179.5q0 110 75.5 180t172.5 70q104 0 178 -74t74 -199zM142 281h299q-11 56 -55 93t-100 37q-55 0 -94 -35.5t-50 -94.5z" />
    <glyph glyph-name="f" unicode="f" horiz-adv-x="292" 
d="M102 82v308h-69v82h69v85q0 67 36 101.5t90 34.5q50 0 82 -28.5t40 -80.5l-82 -13q-4 46 -36 46q-36 0 -36 -51v-94h80v-82h-80v-308h91v-82h-252v82h67z" />
    <glyph glyph-name="g" unicode="g" horiz-adv-x="625" 
d="M614 472v-82h-85v-394q0 -60 -24 -105t-63.5 -68.5t-81 -34.5t-84.5 -11q-100 0 -186 63l60 68q61 -49 134 -49q24 0 48.5 6.5t49 21t39.5 42t15 64.5v71h-2q-28 -35 -74 -56.5t-95 -21.5q-100 0 -165 69t-65 174q0 106 67.5 178.5t166.5 72.5q93 0 167 -75v67h178z
M135 231q0 -72 41.5 -117.5t106.5 -45.5q66 0 110 46.5t44 116.5q0 69 -43.5 115.5t-108.5 46.5t-107.5 -46t-42.5 -116z" />
    <glyph glyph-name="h" unicode="h" 
d="M106 82v515h-85v82h179v-261q84 68 157 68q130 0 130 -143v-261h81v-82h-175v323q0 80 -58 80q-53 0 -135 -62v-259h81v-82h-261v82h86z" />
    <glyph glyph-name="i" unicode="i" horiz-adv-x="292" 
d="M99 82v308h-75v82h169v-390h75v-82h-244v82h75zM144 689q23 0 39.5 -16.5t16.5 -39.5t-16.5 -39.5t-39.5 -16.5t-39.5 16.5t-16.5 39.5t16.5 39.5t39.5 16.5z" />
    <glyph glyph-name="j" unicode="j" horiz-adv-x="292" 
d="M-18 -207v84q25 -4 46 -4q47 0 65 22.5t18 74.5v420h-73v82h167v-469q0 -41 -2 -65.5t-11 -56.5t-26 -50t-50 -30.5t-80 -12.5q-30 0 -54 5zM155 689q23 0 39.5 -16.5t16.5 -39.5t-16.5 -39.5t-39.5 -16.5t-39.5 16.5t-16.5 39.5t16.5 39.5t39.5 16.5z" />
    <glyph glyph-name="k" unicode="k" 
d="M109 82v515h-85v82h179v-424l177 139v2h-79v76h262v-76h-73l-177 -147l167 -167h81v-82h-120l-238 238v-156h70v-82h-250v82h86z" />
    <glyph glyph-name="l" unicode="l" horiz-adv-x="292" 
d="M110 82v515h-84v82h178v-597h73v-82h-253v82h86z" />
    <glyph glyph-name="m" unicode="m" horiz-adv-x="865" 
d="M114 82v308h-79v82h173v-59q84 67 160 67q83 0 114 -74q95 74 170 74q59 0 92.5 -34.5t33.5 -95.5v-268h81v-82h-175v329q0 69 -57 69q-59 0 -134 -62v-254h81v-82h-175v327q0 35 -16.5 51t-41.5 16q-50 0 -133 -58v-254h81v-82h-261v82h86z" />
    <glyph glyph-name="n" unicode="n" 
d="M204 472v-57q89 65 161 65q54 0 89 -34t35 -100v-264h81v-82h-175v309q0 86 -55 86q-60 0 -136 -60v-253h81v-82h-256v82h81v308h-83v82h177z" />
    <glyph glyph-name="o" unicode="o" 
d="M38 236q0 107 71 178.5t178 71.5q106 0 177 -71.5t71 -178.5t-71 -178.5t-178 -71.5q-106 0 -177 71.5t-71 178.5zM138 236q0 -69 42.5 -114.5t105.5 -45.5q64 0 106.5 45.5t42.5 114.5q0 68 -42.5 114t-106.5 46q-63 0 -105.5 -46t-42.5 -114z" />
    <glyph glyph-name="p" unicode="p" horiz-adv-x="625" 
d="M93 -130v520h-79v82h173v-74h2q64 82 164 82q101 0 166 -69t65 -177q0 -106 -67 -177t-165 -71q-95 0 -165 72v-188h91v-82h-271v82h86zM185 230q0 -69 42 -114t107 -45q68 0 110.5 46t42.5 121q0 69 -42 114.5t-106 45.5q-66 0 -110 -48t-44 -120z" />
    <glyph glyph-name="q" unicode="q" horiz-adv-x="615" 
d="M527 -130h86v-82h-271v82h91v190q-68 -74 -166 -74t-164.5 71.5t-66.5 177.5q0 107 65 176t166 69q100 0 164 -82h2v74h173v-82h-79v-520zM435 230q0 72 -44 120t-110 48q-64 0 -106 -45.5t-42 -115.5q0 -74 42 -120t110 -46q65 0 107.5 45t42.5 114z" />
    <glyph glyph-name="r" unicode="r" horiz-adv-x="417" 
d="M117 82v308h-95v82h169v-106h2q21 57 61.5 85.5t87.5 28.5h61v-94h-50q-78 0 -110 -42t-32 -127v-135h102v-82h-289v82h93z" />
    <glyph glyph-name="s" unicode="s" horiz-adv-x="458" 
d="M41 0v162h83v-16q6 -35 36.5 -55.5t76.5 -20.5q44 0 70.5 16t26.5 43q0 30 -28 44t-65.5 16.5t-85 17t-77.5 44.5q-37 37 -37 90q0 61 47 100t119 39q66 0 115 -27v19h82v-156h-82v29q-39 58 -110 58q-38 0 -60.5 -16t-22.5 -42q0 -27 30.5 -40t70 -16t86.5 -16t73 -39
q40 -40 40 -98q0 -64 -50 -104t-131 -40q-74 0 -124 34v-26h-83z" />
    <glyph glyph-name="t" unicode="t" horiz-adv-x="302" 
d="M30 390v82h61v73l94 85v-158h87v-82h-87v-273q0 -58 87 -28v-84q-41 -13 -69 -13q-112 0 -112 112v286h-61z" />
    <glyph glyph-name="u" unicode="u" horiz-adv-x="563" 
d="M553 82v-82h-175v54q-80 -62 -154 -62q-131 0 -131 146v252h-67v82h161v-329q0 -69 56 -69q30 0 67 16.5t68 43.5v256h-81v82h175v-390h81z" />
    <glyph glyph-name="v" unicode="v" horiz-adv-x="542" 
d="M236 -8l-155 398h-83v82h238v-82h-62l102 -268l102 268h-66v82h232v-82h-73l-152 -398h-83z" />
    <glyph glyph-name="w" unicode="w" horiz-adv-x="771" 
d="M183 -8l-126 398h-58v82h199v-82h-61l89 -285h2l89 285h-52v82h229v-82h-51l89 -285h2l90 285h-66v82h213v-82h-67l-127 -398h-87l-107 342h-2l-110 -342h-88z" />
    <glyph glyph-name="x" unicode="x" horiz-adv-x="552" 
d="M277 188l-92 -106h61v-82h-230v82h70l143 161l-136 147h-64v82h222v-82h-59l85 -91l82 91h-48v82h223v-82h-78l-129 -147l148 -161h61v-82h-226v82h67z" />
    <glyph glyph-name="y" unicode="y" horiz-adv-x="563" 
d="M242 9l-155 381h-79v82h234v-82h-56l102 -261l100 261h-63v82h229v-82h-70l-234 -602h-158v82h93z" />
    <glyph glyph-name="z" unicode="z" horiz-adv-x="448" 
d="M16 0v77l294 319h-192v-91h-79v167h384v-82l-298 -313h215v97h83v-174h-407z" />
    <glyph glyph-name="braceleft" unicode="{" horiz-adv-x="333" 
d="M28 196v76q60 0 80.5 38.5t20.5 109.5v85q0 84 30.5 129t110.5 45h41v-72h-15q-52 0 -68 -18t-16 -78v-67q0 -96 -21.5 -139.5t-81.5 -70.5q60 -27 81.5 -70.5t21.5 -139.5v-68q0 -60 16 -78t68 -18h15v-72h-41q-80 0 -110.5 45t-30.5 129v86q0 71 -20.5 109.5
t-80.5 38.5z" />
    <glyph glyph-name="bar" unicode="|" horiz-adv-x="527" 
d="M225 679h77v-891h-77v891z" />
    <glyph glyph-name="braceright" unicode="}" horiz-adv-x="333" 
d="M305 271v-76q-60 0 -81 -38.5t-21 -109.5v-85q0 -84 -30 -129t-110 -45h-41v72h15q53 0 69 18t16 78v67q0 96 21 139.5t81 70.5q-60 27 -81 70.5t-21 139.5v68q0 60 -16 78t-69 18h-15v72h41q80 0 110 -45t30 -129v-86q0 -71 21 -109.5t81 -38.5z" />
    <glyph glyph-name="asciitilde" unicode="~" horiz-adv-x="583" 
d="M41 272v100q51 59 135 59q54 0 130 -33q80 -34 108 -34q66 0 128 68v-103q-33 -30 -65 -43t-72 -13q-48 0 -124 34q-74 33 -113 33q-33 0 -60.5 -14.5t-66.5 -53.5z" />
    <glyph glyph-name="uni00A0" unicode="&#xa0;" horiz-adv-x="250" 
 />
    <glyph glyph-name="exclamdown" unicode="&#xa1;" horiz-adv-x="292" 
d="M171 288l24 -288v-207h-98v207l24 288h50zM206 472v-120h-120v120h120z" />
    <glyph glyph-name="cent" unicode="&#xa2;" horiz-adv-x="521" 
d="M78 -216l84 231q-57 35 -89.5 93t-32.5 132q0 81 42.5 143.5t108.5 88t134 6.5l76 216h54l-83 -232q16 -8 33 -22v32h84v-178h-84q-12 67 -61 91l-109 -306q58 -19 110.5 4t80.5 81l77 -36q-41 -92 -123 -124t-174 -8l-75 -212h-53zM196 108l101 291q-63 11 -110 -33.5
t-47 -125.5q0 -47 12 -73.5t44 -58.5z" />
    <glyph glyph-name="sterling" unicode="&#xa3;" horiz-adv-x="542" 
d="M294 690q89 0 138.5 -51.5t44.5 -139.5h-94q2 18 2 43t-22 47t-63 22q-91 0 -91 -79q0 -39 47 -161h121v-79h-98q19 -77 -9 -165q7 -3 26 -12.5t29.5 -14t26.5 -9t29 -4.5q75 0 83 85h59q0 -87 -39.5 -135t-103.5 -48q-28 0 -55 9.5t-41 18t-49 32.5q-50 -60 -107 -60
q-41 0 -68.5 25t-27.5 65q0 41 29.5 68.5t71.5 27.5q36 0 72 -19q0 72 -23 136h-150v79h121q-15 28 -28 77t-13 79q0 78 50 120.5t132 42.5zM187 85q-43 31 -67 31q-17 0 -28 -10.5t-11 -26.5t11.5 -26.5t29.5 -10.5q33 0 65 43z" />
    <glyph glyph-name="currency" unicode="&#xa4;" horiz-adv-x="667" 
d="M89 532l52 52l63 -64q59 42 128 42q71 0 130 -42l64 64l51 -52l-63 -64q41 -61 41 -131q0 -69 -41 -126l63 -63l-51 -51l-64 63q-62 -43 -131 -43q-70 0 -127 43l-63 -63l-52 51l64 63q-42 67 -42 132q0 66 42 125zM333 490q-62 0 -106 -44.5t-44 -106.5t44 -106t106 -44
t106 44t44 106t-44 106.5t-106 44.5z" />
    <glyph glyph-name="yen" unicode="&#xa5;" horiz-adv-x="646" 
d="M237 517h181l50 77h-85v85h271v-85h-90l-51 -77h131v-57h-169l-100 -151h269v-57h-269v-167h93v-85h-286v85h91v167h-271v57h271l-106 151h-165v57h124l-55 77h-83v85h279v-85h-85zM381 460h-103l53 -75z" />
    <glyph glyph-name="brokenbar" unicode="&#xa6;" horiz-adv-x="527" 
d="M225 168h77v-380h-77v380zM225 679h77v-380h-77v380z" />
    <glyph glyph-name="section" unicode="&#xa7;" horiz-adv-x="479" 
d="M426 513h-93q-7 96 -107 96q-40 0 -66 -20t-26 -51q0 -34 33 -57.5t80 -39.5t94.5 -34.5t80.5 -54t33 -86.5q0 -85 -96 -143q81 -47 81 -130q0 -73 -53.5 -120t-137.5 -47q-91 0 -142 50.5t-51 130.5h93q1 -46 28 -71t74 -25q43 0 69.5 20t26.5 52q0 33 -33 55.5
t-80.5 38.5t-95 34.5t-80.5 54.5t-33 87q0 82 98 140q-82 47 -82 134q0 68 54.5 116t135.5 48q89 0 142 -45.5t53 -132.5zM180 364q-38 -22 -53 -41.5t-15 -45.5q0 -19 8 -32.5t27 -25t37.5 -19t53 -21.5t60.5 -26q33 16 52 40t19 49q0 24 -20 43t-44.5 29t-64 24.5
t-60.5 25.5z" />
    <glyph glyph-name="dieresis" unicode="&#xa8;" horiz-adv-x="333" 
d="M255 669q23 0 39.5 -16.5t16.5 -39.5t-16.5 -39.5t-39.5 -16.5t-39.5 16.5t-16.5 39.5t16.5 39.5t39.5 16.5zM78 669q23 0 39.5 -16.5t16.5 -39.5t-16.5 -39.5t-39.5 -16.5t-39.5 16.5t-16.5 39.5t16.5 39.5t39.5 16.5z" />
    <glyph glyph-name="copyright" unicode="&#xa9;" horiz-adv-x="740" 
d="M488 300l60 -18q-15 -62 -62.5 -98t-115.5 -36q-88 0 -140.5 57.5t-52.5 153.5t53 151.5t144 55.5q64 0 107.5 -30t59.5 -85l-58 -14q-30 75 -111 75q-58 0 -93 -42t-35 -113q0 -70 33 -110.5t90 -40.5q45 0 77.5 25t43.5 69zM369 728q153 0 261 -107.5t108 -260.5
t-108 -261t-261 -108t-260.5 108t-107.5 261t107.5 260.5t260.5 107.5zM369 667q-127 0 -217 -89.5t-90 -217.5t90 -218t217 -90t217.5 90t90.5 218q0 127 -90 217t-218 90z" />
    <glyph glyph-name="ordfeminine" unicode="&#xaa;" horiz-adv-x="344" 
d="M330 448v-50h-105v35q-43 -40 -98 -40q-44 0 -74 26t-30 64q0 39 32.5 65.5t80.5 26.5q41 0 83 -24v39q0 25 -17.5 39t-50.5 14q-44 0 -66 -34l-57 15q38 66 132 66q118 0 118 -91v-151h52zM219 471v33q-37 28 -78 28q-26 0 -43 -13.5t-17 -34.5t15.5 -34t40.5 -13
q43 0 82 34z" />
    <glyph glyph-name="guillemotleft" unicode="&#xab;" horiz-adv-x="479" 
d="M325 237l143 -237h-95l-148 237l148 237h95zM116 237l143 -237h-95l-148 237l148 237h95z" />
    <glyph glyph-name="logicalnot" unicode="&#xac;" horiz-adv-x="667" 
d="M66 485h535v-315h-77v238h-458v77z" />
    <glyph glyph-name="uni00AD" unicode="&#xad;" horiz-adv-x="354" 
d="M31 275h293v-82h-293v82z" />
    <glyph glyph-name="registered" unicode="&#xae;" horiz-adv-x="740" 
d="M208 156v396h173q66 0 99.5 -32t33.5 -75q0 -46 -31.5 -77t-81.5 -34v-2q37 -14 74 -71l66 -105h-78l-35 62q-37 67 -59 86.5t-59 19.5h-38v-168h-64zM272 379h91q83 0 83 60q0 27 -19 43t-57 16h-98v-119zM369 728q153 0 261 -107.5t108 -260.5t-108 -261t-261 -108
t-260.5 108t-107.5 261t107.5 260.5t260.5 107.5zM369 667q-127 0 -217 -89.5t-90 -217.5t90 -218t217 -90t217.5 90t90.5 218q0 127 -90 217t-218 90z" />
    <glyph glyph-name="macron" unicode="&#xaf;" horiz-adv-x="333" 
d="M24 582v53h285v-53h-285z" />
    <glyph glyph-name="degree" unicode="&#xb0;" horiz-adv-x="396" 
d="M198 638q-41 0 -68.5 -27.5t-27.5 -68.5t27.5 -68.5t68.5 -27.5t68.5 27.5t27.5 68.5t-27.5 68.5t-68.5 27.5zM198 691q62 0 106 -44t44 -106t-44 -106t-106 -44t-106 44t-44 106t44 106t106 44z" />
    <glyph glyph-name="plusminus" unicode="&#xb1;" horiz-adv-x="667" 
d="M66 53h535v-77h-535v77zM295 371h-229v77h229v229h77v-229h229v-77h-229v-229h-77v229z" />
    <glyph glyph-name="twosuperior" unicode="&#xb2;" horiz-adv-x="333" 
d="M296 462l-4 -130h-268q0 46 20.5 83t49.5 59t58.5 40t50 36.5t20.5 38.5q0 26 -16 40t-45 14q-73 0 -62 -94h-66q-7 65 27 103t103 38q57 0 92.5 -27t35.5 -70q0 -35 -27.5 -63.5t-61 -45t-66.5 -43.5t-42 -58h139v79h62z" />
    <glyph glyph-name="threesuperior" unicode="&#xb3;" horiz-adv-x="333" 
d="M146 491h-25v49h27q75 0 75 50q0 24 -15.5 38.5t-41.5 14.5q-31 0 -45 -16.5t-15 -53.5h-68q0 117 126 117q57 0 91 -26t34 -70q0 -47 -47 -77q36 -15 50.5 -34t14.5 -50q0 -48 -40 -77.5t-105 -29.5q-69 0 -105.5 33.5t-36.5 95.5h65q2 -82 82 -82q33 0 52.5 16t19.5 42
q0 60 -93 60z" />
    <glyph glyph-name="acute" unicode="&#xb4;" horiz-adv-x="333" 
d="M76 535l69 155h135l-141 -155h-63z" />
    <glyph glyph-name="mu" unicode="&#xb5;" horiz-adv-x="552" 
d="M485 472v-472h-78v61h-2q-26 -40 -55 -56t-73 -16q-41 0 -68 14t-54 49h-2v-264h-87v684h87v-236q0 -82 30.5 -125.5t88.5 -43.5q53 0 89.5 39t36.5 113v253h87z" />
    <glyph glyph-name="paragraph" unicode="&#xb6;" horiz-adv-x="542" 
d="M197 -212v486q-91 5 -144 59t-53 141t56.5 146t167.5 59h316v-85h-70v-806h-84v806h-105v-806h-84z" />
    <glyph glyph-name="periodcentered" unicode="&#xb7;" horiz-adv-x="292" 
d="M86 268v120h120v-120h-120z" />
    <glyph glyph-name="cedilla" unicode="&#xb8;" horiz-adv-x="333" 
d="M108 -202v50q71 -2 71 33q0 27 -39 28l16 98h46l-6 -44q57 -14 57 -77q0 -39 -27.5 -63.5t-82.5 -24.5h-35z" />
    <glyph glyph-name="onesuperior" unicode="&#xb9;" horiz-adv-x="333" 
d="M131 380v256h-56v48h122v-304h53v-48h-174v48h55z" />
    <glyph glyph-name="ordmasculine" unicode="&#xba;" horiz-adv-x="375" 
d="M26 540q0 65 46 107.5t116 42.5q69 0 115 -43t46 -107t-46 -107t-115 -43q-70 0 -116 42.5t-46 107.5zM90 540q0 -41 28 -68.5t70 -27.5q41 0 69 27.5t28 68.5q0 40 -28 67.5t-69 27.5q-42 0 -70 -27t-28 -68z" />
    <glyph glyph-name="guillemotright" unicode="&#xbb;" horiz-adv-x="479" 
d="M363 237l-143 237h95l148 -237l-148 -237h-95zM154 237l-143 237h95l148 -237l-148 -237h-95z" />
    <glyph glyph-name="onequarter" unicode="&#xbc;" horiz-adv-x="969" 
d="M628 93h-135q-7 26 -26 42l169 220h56v-214h64v-48h-64v-45h37v-48h-144v48h43v45zM97 0l539 679h59l-538 -679h-60zM628 141v126h-2l-95 -126h97zM131 380v256h-56v48h122v-304h53v-48h-174v48h55z" />
    <glyph glyph-name="onehalf" unicode="&#xbd;" horiz-adv-x="969" 
d="M97 0l539 679h59l-538 -679h-60zM765 130l-4 -130h-268q0 46 20.5 83t49.5 59t58.5 40t50 36.5t20.5 38.5q0 26 -16 40t-45 14q-73 0 -62 -94h-66q-7 65 27 103t103 38q57 0 92.5 -27t35.5 -70q0 -35 -27.5 -63.5t-61 -45t-66.5 -43.5t-42 -58h139v79h62zM131 380v256
h-56v48h122v-304h53v-48h-174v48h55z" />
    <glyph glyph-name="threequarters" unicode="&#xbe;" horiz-adv-x="969" 
d="M717 93h-135q-7 26 -26 42l169 220h56v-214h64v-48h-64v-45h37v-48h-144v48h43v45zM186 0l539 679h59l-538 -679h-60zM717 141v126h-2l-95 -126h97zM184 491h-25v49h27q75 0 75 50q0 24 -15.5 38.5t-41.5 14.5q-31 0 -45 -16.5t-15 -53.5h-68q0 117 126 117q57 0 91 -26
t34 -70q0 -47 -47 -77q36 -15 50.5 -34t14.5 -50q0 -48 -40 -77.5t-105 -29.5q-69 0 -105.5 33.5t-36.5 95.5h65q2 -82 82 -82q33 0 52.5 16t19.5 42q0 60 -93 60z" />
    <glyph glyph-name="questiondown" unicode="&#xbf;" horiz-adv-x="469" 
d="M234 289h50l12 -212l-7 -3q-66 11 -113 -15t-47 -90q0 -49 29.5 -78.5t78.5 -29.5q57 0 86 35t25 104h92q5 -61 -12.5 -106t-50 -68t-67 -33.5t-70.5 -10.5q-96 0 -151.5 51.5t-55.5 140.5q0 76 48.5 131t140.5 52zM320 472v-120h-120v120h120z" />
    <glyph glyph-name="Agrave" unicode="&#xc0;" horiz-adv-x="698" 
d="M474 239h-244l-53 -154h83v-85h-268v85h82l186 518h-80v76h347v-76h-80l183 -518h76v-85h-266v85h84zM448 318l-90 285h-9l-94 -285h193zM441 742h-63l-141 155h135z" />
    <glyph glyph-name="Aacute" unicode="&#xc1;" horiz-adv-x="698" 
d="M474 239h-244l-53 -154h83v-85h-268v85h82l186 518h-80v76h347v-76h-80l183 -518h76v-85h-266v85h84zM448 318l-90 285h-9l-94 -285h193zM259 742l69 155h135l-141 -155h-63z" />
    <glyph glyph-name="Acircumflex" unicode="&#xc2;" horiz-adv-x="698" 
d="M474 239h-244l-53 -154h83v-85h-268v85h82l186 518h-80v76h347v-76h-80l183 -518h76v-85h-266v85h84zM448 318l-90 285h-9l-94 -285h193zM348 829l-81 -86h-66l82 153h130l85 -153h-69z" />
    <glyph glyph-name="Atilde" unicode="&#xc3;" horiz-adv-x="698" 
d="M474 239h-244l-53 -154h83v-85h-268v85h82l186 518h-80v76h347v-76h-80l183 -518h76v-85h-266v85h84zM448 318l-90 285h-9l-94 -285h193zM457 886h54q0 -63 -23 -99t-66 -36q-33 0 -84 30.5t-66 30.5q-28 0 -28 -54h-56q0 66 25 98.5t64 32.5q29 0 80.5 -30t64.5 -30
q34 0 35 57z" />
    <glyph glyph-name="Adieresis" unicode="&#xc4;" horiz-adv-x="698" 
d="M474 239h-244l-53 -154h83v-85h-268v85h82l186 518h-80v76h347v-76h-80l183 -518h76v-85h-266v85h84zM448 318l-90 285h-9l-94 -285h193zM438 876q23 0 39.5 -16.5t16.5 -39.5t-16.5 -39.5t-39.5 -16.5t-39.5 16.5t-16.5 39.5t16.5 39.5t39.5 16.5zM261 876
q23 0 39.5 -16.5t16.5 -39.5t-16.5 -39.5t-39.5 -16.5t-39.5 16.5t-16.5 39.5t16.5 39.5t39.5 16.5z" />
    <glyph glyph-name="Aring" unicode="&#xc5;" horiz-adv-x="698" 
d="M474 239h-244l-53 -154h83v-85h-268v85h82l186 518h-80v76h347v-76h-80l183 -518h76v-85h-266v85h84zM448 318l-90 285h-9l-94 -285h193zM447 820q0 -40 -28.5 -69t-69.5 -29q-40 0 -68.5 28.5t-28.5 69.5q0 40 28 68.5t69 28.5t69.5 -28.5t28.5 -68.5zM408 820
q0 25 -17 42t-42 17t-42 -17t-17 -42t17 -42t42 -17t42 17t17 42z" />
    <glyph glyph-name="AE" unicode="&#xc6;" horiz-adv-x="938" 
d="M416 310h-191l-117 -225h74v-85h-241v85h66l263 509h-108v85h735v-204h-84v119h-295v-199h256v-85h-256v-225h295v124h84v-209h-589v85h108v225zM416 395v199h-43l-105 -199h148z" />
    <glyph glyph-name="Ccedilla" unicode="&#xc7;" horiz-adv-x="760" 
d="M320 -91l14 83q-131 16 -211 111t-80 236q0 158 92.5 254.5t245.5 96.5q132 0 224 -73v62h88v-218h-88q-29 64 -88 101.5t-131 37.5q-101 0 -166 -72.5t-65 -185.5q0 -111 67.5 -186t167.5 -75q75 0 142 50.5t91 144.5l89 -49q-30 -111 -118 -174.5t-214 -63.5l-4 -26
q57 -14 57 -77q0 -39 -27.5 -63.5t-82.5 -24.5h-35v50q71 -2 71 33q0 27 -39 28z" />
    <glyph glyph-name="Egrave" unicode="&#xc8;" horiz-adv-x="625" 
d="M116 85v509h-88v85h563v-204h-84v119h-289v-202h252v-85h-252v-222h289v124h84v-209h-563v85h88zM404 742h-63l-141 155h135z" />
    <glyph glyph-name="Eacute" unicode="&#xc9;" horiz-adv-x="625" 
d="M116 85v509h-88v85h563v-204h-84v119h-289v-202h252v-85h-252v-222h289v124h84v-209h-563v85h88zM222 742l69 155h135l-141 -155h-63z" />
    <glyph glyph-name="Ecircumflex" unicode="&#xca;" horiz-adv-x="625" 
d="M116 85v509h-88v85h563v-204h-84v119h-289v-202h252v-85h-252v-222h289v124h84v-209h-563v85h88zM311 829l-81 -86h-66l82 153h130l85 -153h-69z" />
    <glyph glyph-name="Edieresis" unicode="&#xcb;" horiz-adv-x="625" 
d="M116 85v509h-88v85h563v-204h-84v119h-289v-202h252v-85h-252v-222h289v124h84v-209h-563v85h88zM401 876q23 0 39.5 -16.5t16.5 -39.5t-16.5 -39.5t-39.5 -16.5t-39.5 16.5t-16.5 39.5t16.5 39.5t39.5 16.5zM224 876q23 0 39.5 -16.5t16.5 -39.5t-16.5 -39.5
t-39.5 -16.5t-39.5 16.5t-16.5 39.5t16.5 39.5t39.5 16.5z" />
    <glyph glyph-name="Igrave" unicode="&#xcc;" horiz-adv-x="313" 
d="M105 85v509h-74v85h250v-85h-74v-509h74v-85h-250v85h74zM248 742h-63l-141 155h135z" />
    <glyph glyph-name="Iacute" unicode="&#xcd;" horiz-adv-x="313" 
d="M105 85v509h-74v85h250v-85h-74v-509h74v-85h-250v85h74zM66 742l69 155h135l-141 -155h-63z" />
    <glyph glyph-name="Icircumflex" unicode="&#xce;" horiz-adv-x="313" 
d="M105 85v509h-74v85h250v-85h-74v-509h74v-85h-250v85h74zM155 829l-81 -86h-66l82 153h130l85 -153h-69z" />
    <glyph glyph-name="Idieresis" unicode="&#xcf;" horiz-adv-x="313" 
d="M105 85v509h-74v85h250v-85h-74v-509h74v-85h-250v85h74zM245 876q23 0 39.5 -16.5t16.5 -39.5t-16.5 -39.5t-39.5 -16.5t-39.5 16.5t-16.5 39.5t16.5 39.5t39.5 16.5zM68 876q23 0 39.5 -16.5t16.5 -39.5t-16.5 -39.5t-39.5 -16.5t-39.5 16.5t-16.5 39.5t16.5 39.5
t39.5 16.5z" />
    <glyph glyph-name="Eth" unicode="&#xd0;" horiz-adv-x="729" 
d="M105 594h-92v85h319q95 0 164.5 -28.5t107.5 -77.5t56 -105.5t18 -121.5q0 -168 -88 -257t-267 -89h-310v85h92v212h-92v85h92v212zM207 594v-212h155v-85h-155v-212h120q247 0 247 258q0 115 -60.5 183t-184.5 68h-122z" />
    <glyph glyph-name="Ntilde" unicode="&#xd1;" horiz-adv-x="719" 
d="M101 85v509h-97v85h232l294 -528h2v443h-95v85h279v-85h-100v-601h-107l-322 580h-2v-488h98v-85h-279v85h97zM467 886h54q0 -63 -23 -99t-66 -36q-33 0 -84 30.5t-66 30.5q-28 0 -28 -54h-56q0 66 25 98.5t64 32.5q29 0 80.5 -30t64.5 -30q34 0 35 57z" />
    <glyph glyph-name="Ograve" unicode="&#xd2;" horiz-adv-x="802" 
d="M50 339q0 154 99 252.5t252 98.5t252 -99t99 -252t-99 -251.5t-252 -98.5q-154 0 -252.5 98t-98.5 252zM162 339q0 -110 69 -185t170 -75t170 75t69 185t-69 185.5t-170 75.5t-170 -75.5t-69 -185.5zM493 742h-63l-141 155h135z" />
    <glyph glyph-name="Oacute" unicode="&#xd3;" horiz-adv-x="802" 
d="M50 339q0 154 99 252.5t252 98.5t252 -99t99 -252t-99 -251.5t-252 -98.5q-154 0 -252.5 98t-98.5 252zM162 339q0 -110 69 -185t170 -75t170 75t69 185t-69 185.5t-170 75.5t-170 -75.5t-69 -185.5zM311 742l69 155h135l-141 -155h-63z" />
    <glyph glyph-name="Ocircumflex" unicode="&#xd4;" horiz-adv-x="802" 
d="M50 339q0 154 99 252.5t252 98.5t252 -99t99 -252t-99 -251.5t-252 -98.5q-154 0 -252.5 98t-98.5 252zM162 339q0 -110 69 -185t170 -75t170 75t69 185t-69 185.5t-170 75.5t-170 -75.5t-69 -185.5zM400 829l-81 -86h-66l82 153h130l85 -153h-69z" />
    <glyph glyph-name="Otilde" unicode="&#xd5;" horiz-adv-x="802" 
d="M50 339q0 154 99 252.5t252 98.5t252 -99t99 -252t-99 -251.5t-252 -98.5q-154 0 -252.5 98t-98.5 252zM162 339q0 -110 69 -185t170 -75t170 75t69 185t-69 185.5t-170 75.5t-170 -75.5t-69 -185.5zM509 886h54q0 -63 -23 -99t-66 -36q-33 0 -84 30.5t-66 30.5
q-28 0 -28 -54h-56q0 66 25 98.5t64 32.5q29 0 80.5 -30t64.5 -30q34 0 35 57z" />
    <glyph glyph-name="Odieresis" unicode="&#xd6;" horiz-adv-x="802" 
d="M50 339q0 154 99 252.5t252 98.5t252 -99t99 -252t-99 -251.5t-252 -98.5q-154 0 -252.5 98t-98.5 252zM162 339q0 -110 69 -185t170 -75t170 75t69 185t-69 185.5t-170 75.5t-170 -75.5t-69 -185.5zM490 876q23 0 39.5 -16.5t16.5 -39.5t-16.5 -39.5t-39.5 -16.5
t-39.5 16.5t-16.5 39.5t16.5 39.5t39.5 16.5zM313 876q23 0 39.5 -16.5t16.5 -39.5t-16.5 -39.5t-39.5 -16.5t-39.5 16.5t-16.5 39.5t16.5 39.5t39.5 16.5z" />
    <glyph glyph-name="multiply" unicode="&#xd7;" horiz-adv-x="668" 
d="M581 520l-194 -194l194 -194l-55 -55l-192 193l-192 -193l-55 55l194 194l-194 194l54 54l193 -193l193 193z" />
    <glyph glyph-name="Oslash" unicode="&#xd8;" horiz-adv-x="802" 
d="M716 646l-55 -63q91 -96 91 -243q0 -152 -100 -251.5t-253 -99.5q-118 0 -209 63l-55 -62l-50 42l56 63q-91 100 -91 250q0 149 98.5 247t249.5 98q122 0 213 -64l56 63zM589 502l-332 -375q61 -48 142 -48q101 0 171 76t70 186q0 93 -51 161zM211 174l333 376
q-66 50 -146 50q-103 0 -169.5 -72.5t-66.5 -184.5q0 -95 49 -169z" />
    <glyph glyph-name="Ugrave" unicode="&#xd9;" horiz-adv-x="677" 
d="M477 594h-79v85h266v-85h-85v-391q0 -62 -21 -106.5t-57 -66.5t-74 -31.5t-83 -9.5q-136 0 -191 58.5t-55 156.5v390h-85v85h266v-85h-79v-393q0 -130 136 -130q75 0 108 33t33 105v385zM430 742h-63l-141 155h135z" />
    <glyph glyph-name="Uacute" unicode="&#xda;" horiz-adv-x="677" 
d="M477 594h-79v85h266v-85h-85v-391q0 -62 -21 -106.5t-57 -66.5t-74 -31.5t-83 -9.5q-136 0 -191 58.5t-55 156.5v390h-85v85h266v-85h-79v-393q0 -130 136 -130q75 0 108 33t33 105v385zM248 742l69 155h135l-141 -155h-63z" />
    <glyph glyph-name="Ucircumflex" unicode="&#xdb;" horiz-adv-x="677" 
d="M477 594h-79v85h266v-85h-85v-391q0 -62 -21 -106.5t-57 -66.5t-74 -31.5t-83 -9.5q-136 0 -191 58.5t-55 156.5v390h-85v85h266v-85h-79v-393q0 -130 136 -130q75 0 108 33t33 105v385zM337 829l-81 -86h-66l82 153h130l85 -153h-69z" />
    <glyph glyph-name="Udieresis" unicode="&#xdc;" horiz-adv-x="677" 
d="M477 594h-79v85h266v-85h-85v-391q0 -62 -21 -106.5t-57 -66.5t-74 -31.5t-83 -9.5q-136 0 -191 58.5t-55 156.5v390h-85v85h266v-85h-79v-393q0 -130 136 -130q75 0 108 33t33 105v385zM427 876q23 0 39.5 -16.5t16.5 -39.5t-16.5 -39.5t-39.5 -16.5t-39.5 16.5
t-16.5 39.5t16.5 39.5t39.5 16.5zM250 876q23 0 39.5 -16.5t16.5 -39.5t-16.5 -39.5t-39.5 -16.5t-39.5 16.5t-16.5 39.5t16.5 39.5t39.5 16.5z" />
    <glyph glyph-name="Yacute" unicode="&#xdd;" horiz-adv-x="646" 
d="M275 85v224l-202 285h-83v85h279v-85h-85l149 -209l137 209h-85v85h271v-85h-90l-189 -285v-224h93v-85h-286v85h91zM233 742l69 155h135l-141 -155h-63z" />
    <glyph glyph-name="Thorn" unicode="&#xde;" 
d="M105 85v509h-85v85h276v-85h-89v-51h114q67 0 114 -17.5t70.5 -47t33 -60.5t9.5 -67q0 -37 -9.5 -71t-32.5 -68t-70.5 -55t-114.5 -21h-114v-51h89v-85h-276v85h85zM207 218h114q123 0 123 120q0 59 -32 89.5t-91 30.5h-114v-240z" />
    <glyph glyph-name="germandbls" unicode="&#xdf;" horiz-adv-x="646" 
d="M206 82h74v-82h-254v82h86v363q0 71 13.5 114t47.5 77q25 25 70 41t93 16q91 0 147.5 -46t56.5 -120q0 -94 -88 -136v-2q71 -15 110.5 -66t39.5 -128q0 -91 -51 -147t-134 -56q-48 0 -85 19v78q28 -15 61 -15q50 0 79.5 33.5t29.5 89.5q0 67 -41.5 105.5t-128.5 38.5v77
q54 0 82.5 29t28.5 70q0 42 -29.5 68t-78.5 26q-69 0 -99 -39t-30 -125v-365z" />
    <glyph glyph-name="agrave" unicode="&#xe0;" horiz-adv-x="531" 
d="M520 82v-82h-164v58q-81 -66 -152 -66q-67 0 -113.5 43.5t-46.5 106.5q0 65 49.5 109t122.5 44q68 0 129 -40v62q0 47 -29.5 69t-75.5 22q-69 0 -101 -56l-89 24q60 110 204 110q97 0 141 -41t44 -104v-259h81zM345 120v56q-61 47 -122 47q-39 0 -64.5 -23t-25.5 -58
q0 -34 23.5 -56t61.5 -22q66 0 127 56zM357 535h-63l-141 155h135z" />
    <glyph glyph-name="aacute" unicode="&#xe1;" horiz-adv-x="531" 
d="M520 82v-82h-164v58q-81 -66 -152 -66q-67 0 -113.5 43.5t-46.5 106.5q0 65 49.5 109t122.5 44q68 0 129 -40v62q0 47 -29.5 69t-75.5 22q-69 0 -101 -56l-89 24q60 110 204 110q97 0 141 -41t44 -104v-259h81zM345 120v56q-61 47 -122 47q-39 0 -64.5 -23t-25.5 -58
q0 -34 23.5 -56t61.5 -22q66 0 127 56zM175 535l69 155h135l-141 -155h-63z" />
    <glyph glyph-name="acircumflex" unicode="&#xe2;" horiz-adv-x="531" 
d="M520 82v-82h-164v58q-81 -66 -152 -66q-67 0 -113.5 43.5t-46.5 106.5q0 65 49.5 109t122.5 44q68 0 129 -40v62q0 47 -29.5 69t-75.5 22q-69 0 -101 -56l-89 24q60 110 204 110q97 0 141 -41t44 -104v-259h81zM345 120v56q-61 47 -122 47q-39 0 -64.5 -23t-25.5 -58
q0 -34 23.5 -56t61.5 -22q66 0 127 56zM264 622l-81 -86h-66l82 153h130l85 -153h-69z" />
    <glyph glyph-name="atilde" unicode="&#xe3;" horiz-adv-x="531" 
d="M520 82v-82h-164v58q-81 -66 -152 -66q-67 0 -113.5 43.5t-46.5 106.5q0 65 49.5 109t122.5 44q68 0 129 -40v62q0 47 -29.5 69t-75.5 22q-69 0 -101 -56l-89 24q60 110 204 110q97 0 141 -41t44 -104v-259h81zM345 120v56q-61 47 -122 47q-39 0 -64.5 -23t-25.5 -58
q0 -34 23.5 -56t61.5 -22q66 0 127 56zM373 679h54q0 -63 -23 -99t-66 -36q-33 0 -84 30.5t-66 30.5q-28 0 -28 -54h-56q0 66 25 98.5t64 32.5q29 0 80.5 -30t64.5 -30q34 0 35 57z" />
    <glyph glyph-name="adieresis" unicode="&#xe4;" horiz-adv-x="531" 
d="M520 82v-82h-164v58q-81 -66 -152 -66q-67 0 -113.5 43.5t-46.5 106.5q0 65 49.5 109t122.5 44q68 0 129 -40v62q0 47 -29.5 69t-75.5 22q-69 0 -101 -56l-89 24q60 110 204 110q97 0 141 -41t44 -104v-259h81zM345 120v56q-61 47 -122 47q-39 0 -64.5 -23t-25.5 -58
q0 -34 23.5 -56t61.5 -22q66 0 127 56zM354 669q23 0 39.5 -16.5t16.5 -39.5t-16.5 -39.5t-39.5 -16.5t-39.5 16.5t-16.5 39.5t16.5 39.5t39.5 16.5zM177 669q23 0 39.5 -16.5t16.5 -39.5t-16.5 -39.5t-39.5 -16.5t-39.5 16.5t-16.5 39.5t16.5 39.5t39.5 16.5z" />
    <glyph glyph-name="aring" unicode="&#xe5;" horiz-adv-x="531" 
d="M520 82v-82h-164v58q-81 -66 -152 -66q-67 0 -113.5 43.5t-46.5 106.5q0 65 49.5 109t122.5 44q68 0 129 -40v62q0 47 -29.5 69t-75.5 22q-69 0 -101 -56l-89 24q60 110 204 110q97 0 141 -41t44 -104v-259h81zM345 120v56q-61 47 -122 47q-39 0 -64.5 -23t-25.5 -58
q0 -34 23.5 -56t61.5 -22q66 0 127 56zM363 613q0 -41 -28.5 -69.5t-69.5 -28.5q-40 0 -68.5 28.5t-28.5 69.5t28 69t69 28t69.5 -28.5t28.5 -68.5zM324 613q0 25 -17 42t-42 17t-42 -17t-17 -42t17 -42t42 -17t42 17t17 42z" />
    <glyph glyph-name="ae" unicode="&#xe6;" horiz-adv-x="885" 
d="M842 213h-384q5 -64 49 -104.5t108 -40.5q41 0 80 19.5t65 53.5l82 -36q-32 -55 -93 -87t-132 -32q-132 0 -211 102q-32 -46 -85 -74t-108 -28q-75 0 -123 42t-48 107q0 77 59 116.5t125 39.5q68 0 138 -40v66q0 47 -30.5 68.5t-78.5 21.5q-84 0 -118 -58l-90 26
q62 111 218 111q116 0 169 -73q65 73 167 73q104 0 171.5 -76t69.5 -197zM458 281h283q-10 56 -48.5 89.5t-93.5 33.5q-52 0 -91 -33.5t-50 -89.5zM364 122v47q-59 46 -122 46q-42 0 -69 -22.5t-27 -57.5q0 -31 24.5 -52t61.5 -21q77 0 132 60z" />
    <glyph glyph-name="ccedilla" unicode="&#xe7;" horiz-adv-x="521" 
d="M220 -91l13 81q-95 15 -146.5 88t-51.5 162q0 102 67.5 174t164.5 72q79 0 133 -46v32h84v-178h-84q-8 50 -41 79q-33 28 -84 28q-63 0 -101.5 -44.5t-38.5 -115.5q0 -76 40 -123t104 -47q99 0 142 93l77 -36q-63 -140 -219 -142l-3 -23q57 -14 57 -77q0 -39 -27.5 -63.5
t-82.5 -24.5h-35v50q71 -2 71 33q0 27 -39 28z" />
    <glyph glyph-name="egrave" unicode="&#xe8;" 
d="M536 213h-397q10 -69 53 -107t109 -38q99 0 153 77l82 -36q-38 -59 -99.5 -91t-137.5 -32q-115 0 -189 70.5t-74 179.5q0 110 75.5 180t172.5 70q104 0 178 -74t74 -199zM142 281h299q-11 56 -55 93t-100 37q-55 0 -94 -35.5t-50 -94.5zM378 535h-63l-141 155h135z" />
    <glyph glyph-name="eacute" unicode="&#xe9;" 
d="M536 213h-397q10 -69 53 -107t109 -38q99 0 153 77l82 -36q-38 -59 -99.5 -91t-137.5 -32q-115 0 -189 70.5t-74 179.5q0 110 75.5 180t172.5 70q104 0 178 -74t74 -199zM142 281h299q-11 56 -55 93t-100 37q-55 0 -94 -35.5t-50 -94.5zM196 535l69 155h135l-141 -155
h-63z" />
    <glyph glyph-name="ecircumflex" unicode="&#xea;" 
d="M536 213h-397q10 -69 53 -107t109 -38q99 0 153 77l82 -36q-38 -59 -99.5 -91t-137.5 -32q-115 0 -189 70.5t-74 179.5q0 110 75.5 180t172.5 70q104 0 178 -74t74 -199zM142 281h299q-11 56 -55 93t-100 37q-55 0 -94 -35.5t-50 -94.5zM285 622l-81 -86h-66l82 153h130
l85 -153h-69z" />
    <glyph glyph-name="edieresis" unicode="&#xeb;" 
d="M536 213h-397q10 -69 53 -107t109 -38q99 0 153 77l82 -36q-38 -59 -99.5 -91t-137.5 -32q-115 0 -189 70.5t-74 179.5q0 110 75.5 180t172.5 70q104 0 178 -74t74 -199zM142 281h299q-11 56 -55 93t-100 37q-55 0 -94 -35.5t-50 -94.5zM375 669q23 0 39.5 -16.5
t16.5 -39.5t-16.5 -39.5t-39.5 -16.5t-39.5 16.5t-16.5 39.5t16.5 39.5t39.5 16.5zM198 669q23 0 39.5 -16.5t16.5 -39.5t-16.5 -39.5t-39.5 -16.5t-39.5 16.5t-16.5 39.5t16.5 39.5t39.5 16.5z" />
    <glyph glyph-name="igrave" unicode="&#xec;" horiz-adv-x="292" 
d="M99 82v308h-75v82h169v-390h75v-82h-244v82h75zM197 535h-63l-141 155h135z" />
    <glyph glyph-name="iacute" unicode="&#xed;" horiz-adv-x="292" 
d="M99 82v308h-75v82h169v-390h75v-82h-244v82h75zM56 535l69 155h135l-141 -155h-63z" />
    <glyph glyph-name="icircumflex" unicode="&#xee;" horiz-adv-x="292" 
d="M99 82v308h-75v82h169v-390h75v-82h-244v82h75zM145 622l-81 -86h-66l82 153h130l85 -153h-69z" />
    <glyph glyph-name="idieresis" unicode="&#xef;" horiz-adv-x="292" 
d="M99 82v308h-75v82h169v-390h75v-82h-244v82h75zM235 669q23 0 39.5 -16.5t16.5 -39.5t-16.5 -39.5t-39.5 -16.5t-39.5 16.5t-16.5 39.5t16.5 39.5t39.5 16.5zM58 669q23 0 39.5 -16.5t16.5 -39.5t-16.5 -39.5t-39.5 -16.5t-39.5 16.5t-16.5 39.5t16.5 39.5t39.5 16.5z
" />
    <glyph glyph-name="eth" unicode="&#xf0;" 
d="M138 236q0 -69 42.5 -114.5t105.5 -45.5q64 0 106.5 45.5t42.5 114.5q0 68 -42.5 114t-106.5 46q-59 0 -103.5 -44t-44.5 -116zM514 647l-129 -48q75 -70 112.5 -161t37.5 -173q0 -132 -69.5 -205.5t-181.5 -73.5q-113 0 -179.5 76t-66.5 174q0 106 71 178t160 72
q76 0 130 -47l2 2q-27 61 -105 125l-132 -50l-53 41l130 49q-48 33 -95 47l95 36q48 -19 91 -48l128 48z" />
    <glyph glyph-name="ntilde" unicode="&#xf1;" 
d="M204 472v-57q89 65 161 65q54 0 89 -34t35 -100v-264h81v-82h-175v309q0 86 -55 86q-60 0 -136 -60v-253h81v-82h-256v82h81v308h-83v82h177zM394 679h54q0 -63 -23 -99t-66 -36q-33 0 -84 30.5t-66 30.5q-28 0 -28 -54h-56q0 66 25 98.5t64 32.5q29 0 80.5 -30t64.5 -30
q34 0 35 57z" />
    <glyph glyph-name="ograve" unicode="&#xf2;" 
d="M38 236q0 107 71 178.5t178 71.5q106 0 177 -71.5t71 -178.5t-71 -178.5t-178 -71.5q-106 0 -177 71.5t-71 178.5zM138 236q0 -69 42.5 -114.5t105.5 -45.5q64 0 106.5 45.5t42.5 114.5q0 68 -42.5 114t-106.5 46q-63 0 -105.5 -46t-42.5 -114zM378 535h-63l-141 155h135
z" />
    <glyph glyph-name="oacute" unicode="&#xf3;" 
d="M38 236q0 107 71 178.5t178 71.5q106 0 177 -71.5t71 -178.5t-71 -178.5t-178 -71.5q-106 0 -177 71.5t-71 178.5zM138 236q0 -69 42.5 -114.5t105.5 -45.5q64 0 106.5 45.5t42.5 114.5q0 68 -42.5 114t-106.5 46q-63 0 -105.5 -46t-42.5 -114zM196 535l69 155h135
l-141 -155h-63z" />
    <glyph glyph-name="ocircumflex" unicode="&#xf4;" 
d="M38 236q0 107 71 178.5t178 71.5q106 0 177 -71.5t71 -178.5t-71 -178.5t-178 -71.5q-106 0 -177 71.5t-71 178.5zM138 236q0 -69 42.5 -114.5t105.5 -45.5q64 0 106.5 45.5t42.5 114.5q0 68 -42.5 114t-106.5 46q-63 0 -105.5 -46t-42.5 -114zM285 622l-81 -86h-66
l82 153h130l85 -153h-69z" />
    <glyph glyph-name="otilde" unicode="&#xf5;" 
d="M38 236q0 107 71 178.5t178 71.5q106 0 177 -71.5t71 -178.5t-71 -178.5t-178 -71.5q-106 0 -177 71.5t-71 178.5zM138 236q0 -69 42.5 -114.5t105.5 -45.5q64 0 106.5 45.5t42.5 114.5q0 68 -42.5 114t-106.5 46q-63 0 -105.5 -46t-42.5 -114zM394 679h54q0 -63 -23 -99
t-66 -36q-33 0 -84 30.5t-66 30.5q-28 0 -28 -54h-56q0 66 25 98.5t64 32.5q29 0 80.5 -30t64.5 -30q34 0 35 57z" />
    <glyph glyph-name="odieresis" unicode="&#xf6;" 
d="M38 236q0 107 71 178.5t178 71.5q106 0 177 -71.5t71 -178.5t-71 -178.5t-178 -71.5q-106 0 -177 71.5t-71 178.5zM138 236q0 -69 42.5 -114.5t105.5 -45.5q64 0 106.5 45.5t42.5 114.5q0 68 -42.5 114t-106.5 46q-63 0 -105.5 -46t-42.5 -114zM375 669q23 0 39.5 -16.5
t16.5 -39.5t-16.5 -39.5t-39.5 -16.5t-39.5 16.5t-16.5 39.5t16.5 39.5t39.5 16.5zM198 669q23 0 39.5 -16.5t16.5 -39.5t-16.5 -39.5t-39.5 -16.5t-39.5 16.5t-16.5 39.5t16.5 39.5t39.5 16.5z" />
    <glyph glyph-name="divide" unicode="&#xf7;" horiz-adv-x="668" 
d="M66 365h534v-77h-534v77zM333 172q20 0 34 -14t14 -34t-14 -34t-34 -14t-34 14t-14 34t14 34t34 14zM333 577q20 0 34 -14t14 -34t-14 -34t-34 -14t-34 14t-14 34t14 34t34 14z" />
    <glyph glyph-name="oslash" unicode="&#xf8;" 
d="M60 3l47 56q-69 71 -69 178q0 106 71 177.5t177 71.5q83 0 147 -45l47 55l33 -28l-47 -55q69 -72 69 -177q0 -107 -71 -178.5t-177 -71.5q-81 0 -146 45l-47 -56zM170 132l202 237q-40 27 -85 27q-64 0 -106.5 -45.5t-42.5 -113.5q0 -59 32 -105zM403 339l-201 -236
q40 -27 85 -27q63 0 105.5 46t42.5 114q0 60 -32 103z" />
    <glyph glyph-name="ugrave" unicode="&#xf9;" horiz-adv-x="563" 
d="M553 82v-82h-175v54q-80 -62 -154 -62q-131 0 -131 146v252h-67v82h161v-329q0 -69 56 -69q30 0 67 16.5t68 43.5v256h-81v82h175v-390h81zM343 535h-63l-141 155h135z" />
    <glyph glyph-name="uacute" unicode="&#xfa;" horiz-adv-x="563" 
d="M553 82v-82h-175v54q-80 -62 -154 -62q-131 0 -131 146v252h-67v82h161v-329q0 -69 56 -69q30 0 67 16.5t68 43.5v256h-81v82h175v-390h81zM191 535l69 155h135l-141 -155h-63z" />
    <glyph glyph-name="ucircumflex" unicode="&#xfb;" horiz-adv-x="563" 
d="M553 82v-82h-175v54q-80 -62 -154 -62q-131 0 -131 146v252h-67v82h161v-329q0 -69 56 -69q30 0 67 16.5t68 43.5v256h-81v82h175v-390h81zM280 622l-81 -86h-66l82 153h130l85 -153h-69z" />
    <glyph glyph-name="udieresis" unicode="&#xfc;" horiz-adv-x="563" 
d="M553 82v-82h-175v54q-80 -62 -154 -62q-131 0 -131 146v252h-67v82h161v-329q0 -69 56 -69q30 0 67 16.5t68 43.5v256h-81v82h175v-390h81zM370 669q23 0 39.5 -16.5t16.5 -39.5t-16.5 -39.5t-39.5 -16.5t-39.5 16.5t-16.5 39.5t16.5 39.5t39.5 16.5zM193 669
q23 0 39.5 -16.5t16.5 -39.5t-16.5 -39.5t-39.5 -16.5t-39.5 16.5t-16.5 39.5t16.5 39.5t39.5 16.5z" />
    <glyph glyph-name="yacute" unicode="&#xfd;" horiz-adv-x="563" 
d="M242 9l-155 381h-79v82h234v-82h-56l102 -261l100 261h-63v82h229v-82h-70l-234 -602h-158v82h93zM191 535l69 155h135l-141 -155h-63z" />
    <glyph glyph-name="thorn" unicode="&#xfe;" horiz-adv-x="625" 
d="M93 -130v727h-79v82h173v-281h2q64 82 164 82q101 0 166 -69t65 -178q0 -105 -67 -176t-165 -71q-95 0 -165 72v-188h91v-82h-271v82h86zM185 230q0 -69 42 -114t107 -45q68 0 110.5 46t42.5 121q0 69 -42 114.5t-106 45.5q-66 0 -110 -48t-44 -120z" />
    <glyph glyph-name="ydieresis" unicode="&#xff;" horiz-adv-x="563" 
d="M242 9l-155 381h-79v82h234v-82h-56l102 -261l100 261h-63v82h229v-82h-70l-234 -602h-158v82h93zM370 669q23 0 39.5 -16.5t16.5 -39.5t-16.5 -39.5t-39.5 -16.5t-39.5 16.5t-16.5 39.5t16.5 39.5t39.5 16.5zM193 669q23 0 39.5 -16.5t16.5 -39.5t-16.5 -39.5
t-39.5 -16.5t-39.5 16.5t-16.5 39.5t16.5 39.5t39.5 16.5z" />
    <glyph glyph-name="dotlessi" unicode="&#x131;" horiz-adv-x="292" 
d="M99 82v308h-75v82h169v-390h75v-82h-244v82h75z" />
    <glyph glyph-name="Lslash" unicode="&#x141;" horiz-adv-x="521" 
d="M104 85v180l-90 -79v88l90 80v240h-90v85h278v-85h-86v-169l122 104v-88l-122 -104v-252h212v231h94v-316h-498v85h90z" />
    <glyph glyph-name="lslash" unicode="&#x142;" horiz-adv-x="292" 
d="M110 82v184l-101 -81v81l101 80v251h-84v82h178v-267l97 81v-81l-97 -81v-249h73v-82h-253v82h86z" />
    <glyph glyph-name="OE" unicode="&#x152;" horiz-adv-x="1021" 
d="M613 594v-199h252v-85h-252v-225h291v123h84v-208h-601q-158 0 -252.5 99.5t-94.5 238.5q0 37 8 77t33 89t63 86.5t105 63t153 25.5h586v-204h-84v119h-291zM511 594h-109q-131 0 -194.5 -71t-63.5 -183q0 -50 12.5 -92.5t41 -80.5t82.5 -60t129 -22h102v509z" />
    <glyph glyph-name="oe" unicode="&#x153;" horiz-adv-x="948" 
d="M909 213h-391q5 -63 48 -104t106 -41q92 0 155 77l82 -35q-34 -60 -99.5 -92t-136.5 -32q-128 0 -203 96q-70 -96 -187 -96q-106 0 -177 71.5t-71 178.5q0 115 76.5 182.5t167.5 67.5q113 0 191 -96q70 96 189 96q103 0 176.5 -75.5t73.5 -197.5zM521 281h283
q-11 55 -51.5 89t-95.5 34q-53 0 -89 -32.5t-47 -90.5zM135 234q0 -68 42 -113t105 -45t103.5 45.5t40.5 115.5q0 66 -42 110.5t-104 44.5t-103.5 -45t-41.5 -113z" />
    <glyph glyph-name="Scaron" unicode="&#x160;" horiz-adv-x="531" 
d="M34 0v246h84v-60q66 -112 158 -112q52 0 86 32.5t34 81.5q0 37 -22.5 60.5t-60 35t-78 21.5t-85 28.5t-73.5 47.5q-45 45 -45 123q0 89 57.5 137.5t140.5 48.5q82 0 152 -53v45h84v-205h-84v47q-54 79 -144 79q-52 0 -83 -24t-31 -63q0 -35 23 -58q21 -21 78.5 -35.5
t120 -34t96.5 -53.5q58 -58 58 -146q0 -86 -61.5 -143t-153.5 -57q-94 0 -167 67v-56h-84zM268 810l80 86h66l-82 -153h-130l-85 153h69z" />
    <glyph glyph-name="scaron" unicode="&#x161;" horiz-adv-x="458" 
d="M41 0v162h83v-16q6 -35 36.5 -55.5t76.5 -20.5q44 0 70.5 16t26.5 43q0 30 -28 44t-65.5 16.5t-85 17t-77.5 44.5q-37 37 -37 90q0 61 47 100t119 39q66 0 115 -27v19h82v-156h-82v29q-39 58 -110 58q-38 0 -60.5 -16t-22.5 -42q0 -27 30.5 -40t70 -16t86.5 -16t73 -39
q40 -40 40 -98q0 -64 -50 -104t-131 -40q-74 0 -124 34v-26h-83zM232 603l80 86h66l-82 -153h-130l-85 153h69z" />
    <glyph glyph-name="Ydieresis" unicode="&#x178;" horiz-adv-x="646" 
d="M275 85v224l-202 285h-83v85h279v-85h-85l149 -209l137 209h-85v85h271v-85h-90l-189 -285v-224h93v-85h-286v85h91zM412 876q23 0 39.5 -16.5t16.5 -39.5t-16.5 -39.5t-39.5 -16.5t-39.5 16.5t-16.5 39.5t16.5 39.5t39.5 16.5zM235 876q23 0 39.5 -16.5t16.5 -39.5
t-16.5 -39.5t-39.5 -16.5t-39.5 16.5t-16.5 39.5t16.5 39.5t39.5 16.5z" />
    <glyph glyph-name="Zcaron" unicode="&#x17d;" horiz-adv-x="563" 
d="M25 0v85l364 509h-264v-119h-84v204h478v-75l-371 -519h298v131h84v-216h-505zM284 810l80 86h66l-82 -153h-130l-85 153h69z" />
    <glyph glyph-name="zcaron" unicode="&#x17e;" horiz-adv-x="448" 
d="M16 0v77l294 319h-192v-91h-79v167h384v-82l-298 -313h215v97h83v-174h-407zM227 603l80 86h66l-82 -153h-130l-85 153h69z" />
    <glyph glyph-name="florin" unicode="&#x192;" horiz-adv-x="552" 
d="M23 -200l17 76q47 -11 74 -11q31 0 42.5 15.5t18.5 53.5l88 516h-98l11 68h99l11 65q13 76 43 110.5t96 34.5q48 0 105 -19l-17 -74q-52 11 -76 11q-29 0 -42 -15.5t-21 -62.5l-9 -50h99l-12 -68h-100l-93 -535q-12 -68 -41.5 -97.5t-85.5 -29.5q-48 0 -109 12z" />
    <glyph glyph-name="circumflex" unicode="&#x2c6;" horiz-adv-x="333" 
d="M165 622l-81 -86h-66l82 153h130l85 -153h-69z" />
    <glyph glyph-name="caron" unicode="&#x2c7;" horiz-adv-x="333" 
d="M169 603l80 86h66l-82 -153h-130l-85 153h69z" />
    <glyph glyph-name="uni02C9" unicode="&#x2c9;" horiz-adv-x="333" 
d="M24 582v53h285v-53h-285z" />
    <glyph glyph-name="breve" unicode="&#x2d8;" horiz-adv-x="333" 
d="M16 682h70q6 -35 27 -53q19 -18 54 -18q69 0 80 71h70q-6 -63 -47 -101t-103 -38q-63 0 -104 37.5t-47 101.5z" />
    <glyph glyph-name="dotaccent" unicode="&#x2d9;" horiz-adv-x="333" 
d="M167 669q23 0 39.5 -16.5t16.5 -39.5t-16.5 -39.5t-39.5 -16.5t-39.5 16.5t-16.5 39.5t16.5 39.5t39.5 16.5z" />
    <glyph glyph-name="ring" unicode="&#x2da;" horiz-adv-x="333" 
d="M264 613q0 -41 -29 -69.5t-69 -28.5t-68.5 28.5t-28.5 69.5t28.5 69t68.5 28q41 0 69.5 -28.5t28.5 -68.5zM225 613q0 25 -17 42t-42 17t-42 -17t-17 -42t17 -42t42 -17t42 17t17 42z" />
    <glyph glyph-name="ogonek" unicode="&#x2db;" horiz-adv-x="333" 
d="M105 0h78q-20 -37 -20 -71q0 -64 54 -64q20 0 41 10v-65q-47 -22 -82 -22q-45 0 -72.5 28.5t-27.5 74.5q0 44 29 109z" />
    <glyph glyph-name="tilde" unicode="&#x2dc;" horiz-adv-x="333" 
d="M274 679h54q0 -63 -23 -99t-66 -36q-33 0 -84 30.5t-66 30.5q-28 0 -28 -54h-56q0 66 25 98.5t64 32.5q29 0 80.5 -30t64.5 -30q34 0 35 57z" />
    <glyph glyph-name="hungarumlaut" unicode="&#x2dd;" horiz-adv-x="333" 
d="M148 535l69 155h135l-141 -155h-63zM-19 535l69 155h135l-141 -155h-63z" />
    <glyph glyph-name="uni03A9" unicode="&#x3a9;" horiz-adv-x="698" 
d="M187 70v3q-56 49 -92.5 124.5t-36.5 168.5q0 139 83.5 229.5t210.5 90.5q128 0 207 -94t79 -222q0 -96 -37.5 -173.5t-92.5 -123.5v-3h144v-70h-240v51q60 39 100 117t40 186q0 102 -54 181.5t-147 79.5t-149.5 -75.5t-56.5 -188.5q0 -102 41 -182.5t99 -117.5v-51h-240
v70h142z" />
    <glyph glyph-name="uni03BC" unicode="&#x3bc;" horiz-adv-x="552" 
d="M485 472v-472h-78v61h-2q-26 -40 -55 -56t-73 -16q-41 0 -68 14t-54 49h-2v-264h-87v684h87v-236q0 -82 30.5 -125.5t88.5 -43.5q53 0 89.5 39t36.5 113v253h87z" />
    <glyph glyph-name="pi" unicode="&#x3c0;" horiz-adv-x="562" 
d="M537 431h-76v-288q0 -89 14 -143h-83q-16 27 -16 137v294h-166q-5 -101 -25 -233.5t-44 -197.5h-84q26 76 45.5 204.5t22.5 226.5q-75 0 -105 -12l-12 57q42 28 144 28h393z" />
    <glyph glyph-name="uni2010" unicode="&#x2010;" horiz-adv-x="354" 
d="M31 275h293v-82h-293v82z" />
    <glyph glyph-name="endash" unicode="&#x2013;" horiz-adv-x="500" 
d="M-6 292h512v-85h-512v85z" />
    <glyph glyph-name="emdash" unicode="&#x2014;" horiz-adv-x="1000" 
d="M-6 292h1012v-85h-1012v85z" />
    <glyph glyph-name="quoteleft" unicode="&#x2018;" horiz-adv-x="292" 
d="M206 544v-120h-120v120q0 68 27.5 101t92.5 34v-50q-33 -8 -46.5 -26.5t-13.5 -58.5h60z" />
    <glyph glyph-name="quoteright" unicode="&#x2019;" horiz-adv-x="292" 
d="M86 559v120h120v-120q0 -68 -27.5 -101t-92.5 -34v50q33 8 46.5 26.5t13.5 58.5h-60z" />
    <glyph glyph-name="quotesinglbase" unicode="&#x201a;" horiz-adv-x="292" 
d="M86 0v120h120v-120q0 -68 -27.5 -101t-92.5 -34v50q33 8 46.5 26.5t13.5 58.5h-60z" />
    <glyph glyph-name="quotedblleft" unicode="&#x201c;" horiz-adv-x="521" 
d="M442 544v-120h-120v120q0 68 27.5 101t92.5 34v-50q-33 -8 -46.5 -26.5t-13.5 -58.5h60zM200 544v-120h-120v120q0 68 27.5 101t92.5 34v-50q-33 -8 -46.5 -26.5t-13.5 -58.5h60z" />
    <glyph glyph-name="quotedblright" unicode="&#x201d;" horiz-adv-x="521" 
d="M321 559v120h120v-120q0 -68 -27.5 -101t-92.5 -34v50q33 8 46.5 26.5t13.5 58.5h-60zM79 559v120h120v-120q0 -68 -27.5 -101t-92.5 -34v50q33 8 46.5 26.5t13.5 58.5h-60z" />
    <glyph glyph-name="quotedblbase" unicode="&#x201e;" horiz-adv-x="521" 
d="M321 0v120h120v-120q0 -68 -27.5 -101t-92.5 -34v50q33 8 46.5 26.5t13.5 58.5h-60zM79 0v120h120v-120q0 -68 -27.5 -101t-92.5 -34v50q33 8 46.5 26.5t13.5 58.5h-60z" />
    <glyph glyph-name="dagger" unicode="&#x2020;" horiz-adv-x="521" 
d="M279 407q0 -73 32 -137v-120l-32 -367h-37l-32 368v119q15 27 24 61q8 27 8 76q-36 0 -72 -9t-52 -20h-95v94h95q14 -8 48 -19q33 -10 76 -10q0 83 -32 134v113h101v-113q-17 -26 -25 -55q-7 -29 -7 -79q35 0 71.5 9t52.5 20h95v-94h-95q-21 14 -49 21q-32 8 -75 8z" />
    <glyph glyph-name="daggerdbl" unicode="&#x2021;" horiz-adv-x="521" 
d="M323 241q-17 -31 -30.5 -88.5t-13.5 -93.5q66 -2 111 26h91v-91h-91q-21 13 -45 19t-66 10q6 -75 32 -118v-113h-101v113q5 8 21 48q11 26 11 70q-78 -6 -111 -29h-91v91h91q28 -15 53 -21q24 -5 58 -5q-10 110 -44 182q34 72 44 182q-70 0 -111 -26h-91v91h91
q20 -14 50 -20q19 -5 61 -9q-6 76 -32 118v113h101v-113q-13 -20 -22 -49q-7 -26 -10 -69q76 8 111 29h91v-91h-91q-21 13 -50 20q-34 7 -61 6q0 -36 13.5 -93.5t30.5 -88.5z" />
    <glyph glyph-name="bullet" unicode="&#x2022;" horiz-adv-x="354" 
d="M177 462q51 0 87 -35.5t36 -86.5t-36 -87t-87 -36t-86.5 36t-35.5 87t35.5 86.5t86.5 35.5z" />
    <glyph glyph-name="ellipsis" unicode="&#x2026;" horiz-adv-x="1000" 
d="M773 0v120h120v-120h-120zM440 0v120h120v-120h-120zM107 0v120h120v-120h-120z" />
    <glyph glyph-name="perthousand" unicode="&#x2030;" horiz-adv-x="1083" 
d="M770 162q0 81 38.5 129t103.5 48t103.5 -48t38.5 -129q0 -80 -38.5 -128t-103.5 -48t-103.5 48t-38.5 128zM849 162q0 -115 63 -115t63 115t-63 115t-63 -115zM405 162q0 81 38.5 129t103.5 48t103.5 -48t38.5 -129q0 -80 -38.5 -128t-103.5 -48t-103.5 48t-38.5 128z
M484 162q0 -115 63 -115t63 115t-63 115t-63 -115zM30 512q0 81 38.5 129t103.5 48t103.5 -48t38.5 -129q0 -80 -38.5 -128t-103.5 -48t-103.5 48t-38.5 128zM109 512q0 -115 63 -115t63 115t-63 115t-63 -115zM58 0l539 679h69l-535 -679h-73z" />
    <glyph glyph-name="guilsinglleft" unicode="&#x2039;" horiz-adv-x="292" 
d="M127 237l143 -237h-95l-148 237l148 237h95z" />
    <glyph glyph-name="guilsinglright" unicode="&#x203a;" horiz-adv-x="292" 
d="M165 237l-143 237h95l148 -237l-148 -237h-95z" />
    <glyph glyph-name="fraction" unicode="&#x2044;" horiz-adv-x="302" 
d="M-148 0l539 679h59l-538 -679h-60z" />
    <glyph glyph-name="Euro" unicode="&#x20ac;" horiz-adv-x="542" 
d="M193 373l-1 -31l1 -32h180v-74h-173q24 -165 148 -165q41 0 71 36q30 34 44 93l89 -39q-17 -80 -71 -125q-53 -47 -140 -47q-213 0 -244 247h-64v74h58v29q0 27 1 34h-59v74h64q29 243 242 243q71 0 106 -47v42h88v-202h-88q-7 60 -36 93q-28 34 -71 34q-62 0 -96 -39
q-34 -41 -44 -124h175v-74h-180z" />
    <glyph glyph-name="afii61289" unicode="&#x2113;" horiz-adv-x="479" 
d="M419 154l38 -36q-65 -125 -187 -125q-79 0 -119 48.5t-45 125.5v12q-7 -5 -26 -20.5t-29 -23.5l-24 48q77 66 78 67v259q0 122 44.5 179t110.5 57q62 0 93.5 -45t31.5 -116q0 -158 -199 -350l1 -34q1 -69 29.5 -104t71.5 -35q41 0 75 27.5t56 65.5zM186 514v-198
q142 156 142 268q0 98 -66 98q-30 0 -53 -40.5t-23 -127.5z" />
    <glyph glyph-name="trademark" unicode="&#x2122;" horiz-adv-x="1000" 
d="M240 281v339h-129v59h324v-59h-129v-339h-66zM481 281v398h98l99 -318h2l96 318h98v-398h-61v334h-2l-102 -334h-60l-105 334h-2v-334h-61z" />
    <glyph glyph-name="Omega" unicode="&#x2126;" horiz-adv-x="698" 
d="M187 70v3q-56 49 -92.5 124.5t-36.5 168.5q0 139 83.5 229.5t210.5 90.5q128 0 207 -94t79 -222q0 -96 -37.5 -173.5t-92.5 -123.5v-3h144v-70h-240v51q60 39 100 117t40 186q0 102 -54 181.5t-147 79.5t-149.5 -75.5t-56.5 -188.5q0 -102 41 -182.5t99 -117.5v-51h-240
v70h142z" />
    <glyph glyph-name="estimated" unicode="&#x212e;" horiz-adv-x="845" 
d="M811 330h-630q-5 0 -5 -4v-191q0 -12 8 -22q101 -104 239 -104q148 0 251 116h56q-53 -63 -134.5 -99t-173.5 -36q-161 0 -275 102t-114 247t114 248t275 103t275 -103t114 -248v-9zM668 355v191q0 14 -9 23q-102 100 -236 100q-137 0 -238 -103q-9 -9 -9 -24v-187
q0 -7 5 -7h483q4 0 4 7z" />
    <glyph glyph-name="partialdiff" unicode="&#x2202;" horiz-adv-x="538" 
d="M99 643l-27 62q68 55 166 55q105 0 178 -95.5t73 -271.5q0 -178 -68 -289t-190 -111q-91 0 -141 67.5t-50 157.5q0 111 60.5 179.5t146.5 68.5q58 0 99.5 -29.5t57.5 -59.5h1q1 10 1 40q0 118 -51 195t-127 77q-70 0 -129 -46zM238 64h1q62 0 104 68.5t53 164.5
q-12 36 -48.5 68.5t-85.5 32.5q-57 0 -97.5 -53.5t-40.5 -127.5q0 -66 31.5 -109.5t82.5 -43.5z" />
    <glyph glyph-name="uni2206" unicode="&#x2206;" horiz-adv-x="633" 
d="M29 0v55l239 638h100l235 -637v-56h-574zM116 69h395l-133 349q-7 24 -31.5 90t-30.5 89h-3q-5 -20 -27.5 -81.5t-29.5 -81.5z" />
    <glyph glyph-name="product" unicode="&#x220f;" horiz-adv-x="685" 
d="M660 598h-105v-691h-84v691h-258v-691h-84v691h-104v77h635v-77z" />
    <glyph glyph-name="summation" unicode="&#x2211;" horiz-adv-x="539" 
d="M518 -93h-496v56l255 327l-244 326v59h470v-73h-353v-3l224 -296l-244 -313v-3h388v-80z" />
    <glyph glyph-name="minus" unicode="&#x2212;" horiz-adv-x="667" 
d="M66 365h535v-77h-535v77z" />
    <glyph glyph-name="uni2215" unicode="&#x2215;" horiz-adv-x="302" 
d="M-148 0l539 679h59l-538 -679h-60z" />
    <glyph glyph-name="uni2219" unicode="&#x2219;" horiz-adv-x="292" 
d="M86 268v120h120v-120h-120z" />
    <glyph glyph-name="radical" unicode="&#x221a;" horiz-adv-x="561" 
d="M563 804l-217 -946h-72l-153 442l-72 -28l-17 51l141 55l119 -348q1 -5 8 -33t9 -40h1q2 11 7 38t7 36l177 773h62z" />
    <glyph glyph-name="infinity" unicode="&#x221e;" horiz-adv-x="754" 
d="M705 281v-2q0 -70 -44.5 -113.5t-105.5 -43.5q-44 0 -85 27t-92 87q-48 -56 -88.5 -85t-94.5 -29q-60 0 -103.5 44t-43.5 110q0 68 44 112t111 44q50 0 91.5 -29.5t87.5 -83.5q27 31 38 42t36.5 33t51 30t54.5 8q63 0 103 -42t40 -109zM202 173h2q12 0 24 3t24.5 10.5
t21 12.5t22 18t18 17.5t19.5 21t17 18.5q-25 30 -34.5 41t-31 31.5t-42.5 28.5t-45 8q-43 0 -69 -31.5t-26 -76.5q0 -43 28 -72.5t72 -29.5zM556 383h-1q-18 0 -35.5 -6.5t-35 -21t-28 -24t-28 -29.5t-20.5 -23q52 -59 83 -82.5t67 -23.5q42 0 68 31.5t26 71.5
q0 49 -26.5 78t-69.5 29z" />
    <glyph glyph-name="integral" unicode="&#x222b;" horiz-adv-x="356" 
d="M339 815l-13 -59q-16 10 -35 10q-31 0 -49 -24q-32 -37 -32 -170q0 -75 7 -237t7 -244q0 -131 -40 -195q-33 -54 -103 -54q-43 0 -67 16l14 61q24 -12 43 -12q29 0 45 22q32 43 32 162q0 83 -7 247.5t-7 241.5q0 82 12 130t41 78q39 40 97 40q31 0 55 -13z" />
    <glyph glyph-name="approxequal" unicode="&#x2248;" horiz-adv-x="544" 
d="M467 422l33 -30q-48 -94 -126 -94q-19 0 -38 5.5t-33 12.5t-42 23q-58 33 -89 33q-30 0 -51 -18.5t-45 -53.5l-34 29q23 44 58.5 69t77.5 25q11 0 23 -2t19.5 -4.5t19 -8t16 -7.5t16.5 -9t13 -8q4 -2 14 -7.5t14 -7.5t11.5 -6t12.5 -5.5t12 -4t13.5 -3t13.5 -0.5
q49 0 91 72zM467 253l33 -30q-49 -94 -126 -94q-19 0 -38 5.5t-33 12.5t-42 23q-58 33 -89 33t-51.5 -18t-44.5 -54l-34 29q23 44 58.5 69t77.5 25q14 0 26.5 -2.5t25 -7.5t19.5 -8.5t20 -10.5t16 -9q4 -2 15 -8.5t15 -8.5t13.5 -7t15.5 -6.5t15 -3t17 -1.5q49 0 91 72z" />
    <glyph glyph-name="notequal" unicode="&#x2260;" horiz-adv-x="544" 
d="M390 490l-43 -93h148v-53h-169l-63 -139h232v-53h-253l-52 -114l-42 19l43 95h-142v53h164l63 139h-227v53h248l51 112z" />
    <glyph glyph-name="lessequal" unicode="&#x2264;" horiz-adv-x="544" 
d="M493 93l-439 218v57l438 218v-63l-382 -182v-2l383 -183v-63zM495 0h-446v55h446v-55z" />
    <glyph glyph-name="greaterequal" unicode="&#x2265;" horiz-adv-x="544" 
d="M55 586l438 -219v-56l-438 -218v63l382 182v3l-382 182v63zM494 0h-444v55h444v-55z" />
    <glyph glyph-name="lozenge" unicode="&#x25ca;" horiz-adv-x="561" 
d="M509 337l-196 -382h-69l-192 382l195 383h69zM432 335l-132 262q-12 27 -19 52h-2q-12 -37 -19 -52l-132 -258l133 -264q14 -33 17 -51h4q7 30 17 50z" />
    <glyph glyph-name="fi" unicode="&#xfb01;" 
d="M390 390h-191v-308h75v-82h-244v82h75v308h-75v82h75v85q0 67 36 101.5t90 34.5q50 0 82 -28.5t40 -80.5l-82 -13q-4 46 -36 46q-36 0 -36 -51v-94h285v-390h75v-82h-244v82h75v308zM438 689q23 0 39.5 -16.5t16.5 -39.5t-16.5 -39.5t-39.5 -16.5t-39.5 16.5t-16.5 39.5
t16.5 39.5t39.5 16.5z" />
    <glyph glyph-name="fl" unicode="&#xfb02;" 
d="M199 472h80v-82h-80v-308h75v-82h-244v82h75v308h-75v82h75v85q0 67 36 101.5t90 34.5q39 0 59 -14h194v-597h75v-82h-244v82h75v515l-118 -11q-9 31 -37 31q-36 0 -36 -51v-94z" />
    <glyph glyph-name="one.superior" horiz-adv-x="333" 
d="M131 380v256h-56v48h122v-304h53v-48h-174v48h55z" />
    <glyph glyph-name="two.superior" horiz-adv-x="333" 
d="M296 462l-4 -130h-268q0 46 20.5 83t49.5 59t58.5 40t50 36.5t20.5 38.5q0 26 -16 40t-45 14q-73 0 -62 -94h-66q-7 65 27 103t103 38q57 0 92.5 -27t35.5 -70q0 -35 -27.5 -63.5t-61 -45t-66.5 -43.5t-42 -58h139v79h62z" />
    <glyph glyph-name="three.superior" horiz-adv-x="333" 
d="M146 491h-25v49h27q75 0 75 50q0 24 -15.5 38.5t-41.5 14.5q-31 0 -45 -16.5t-15 -53.5h-68q0 117 126 117q57 0 91 -26t34 -70q0 -47 -47 -77q36 -15 50.5 -34t14.5 -50q0 -48 -40 -77.5t-105 -29.5q-69 0 -105.5 33.5t-36.5 95.5h65q2 -82 82 -82q33 0 52.5 16t19.5 42
q0 60 -93 60z" />
    <glyph glyph-name="a.superior" horiz-adv-x="344" 
d="M330 448v-50h-105v35q-43 -40 -98 -40q-44 0 -74 26t-30 64q0 39 32.5 65.5t80.5 26.5q41 0 83 -24v39q0 25 -17.5 39t-50.5 14q-44 0 -66 -34l-57 15q38 66 132 66q118 0 118 -91v-151h52zM219 471v33q-37 28 -78 28q-26 0 -43 -13.5t-17 -34.5t15.5 -34t40.5 -13
q43 0 82 34z" />
    <glyph glyph-name="o.superior" horiz-adv-x="375" 
d="M26 540q0 65 46 107.5t116 42.5q69 0 115 -43t46 -107t-46 -107t-115 -43q-70 0 -116 42.5t-46 107.5zM90 540q0 -41 28 -68.5t70 -27.5q41 0 69 27.5t28 68.5q0 40 -28 67.5t-69 27.5q-42 0 -70 -27t-28 -68z" />
    </font>
</defs>
</svg>
